(Classical) Aram Khachaturian / Хачатурян - Spartacus/Спартак - Suites No.4; Masquerade/Маскарад, Circus/Цирк, Танцевальные сюиты (Лезгинка и др.) (Anichanov/Аниханов, Yablonsky/Яблонский) Naxos-8.550802 - 1996, FLAC (tracks+.cue) lossless


 

[Цитировать]

Aram Khachaturian / Хачатурян - Spartacus / Спартак - Suites No. 4; Masquerade Suite / Маскарад, Circus / Цирк, Tantseval'naya syuita (Dance Suite) / Танцевальные сюиты (Лезгинка и др.) (Andre Anichanov/Аниханов, St. Petersburg State Symphony Orchestra) Naxos-8.550802
Жанр: Classical
Год издания диска: 1996
Издатель (лейбл): Naxos
Номер по каталогу: 8.550802
Дата записи:
Аудиокодек: FLAC
Тип рипа: tracks+.cue
Битрейт аудио: lossless
Продолжительность: 01:11:43
Источник: собственный рип
Наличие сканов в содержимом раздачи: да
Исполнители:
St. Petersburg State Symphony Orchestra; Anichanov / Санкт Петербургский Государственный Симфонический оркестр под руководством Андрея Аничанова. (1-10 )
Moscow Symphony Orchestra; Yablonsky /Московский Симфонический оркестр под руководством Дмитрия Яблонского (11-15)
Трэклист:
Spartacus Suite No. 4:
01. Bacchante's Melancholy Dance (04:15)
02. Spartacus Procession (03:43)
03. Death Of The Gladiator (04:39)
04. Call To Arms / Spartacus' Uprising (03:47)
Masquerade (Suite From The Drama):
05. Waltz (04:21)
06. Nocturne (03:54)
07. Mazurka (02:47)
08. Romance (03:12)
09. Gallop (03:14)
10. Circus (Music from the Ballet) (12:59)
Dance Suite:
11. Trans-Caucasian Dance (02:59)
12. Armenian Dance (05:09)
13. Uzbek Dance Tune (10:14)
14. Uzbek March (03:29)
15. Lezghinka (03:01)

LOG EAC CD:

Exact Audio Copy V1.0 beta 3 from 29. August 2011
EAC extraction logfile from 30. January 2015, 9:32
Anichanov, Yablonsky / Khachaturian- Spartacus (Suite No. 4); Maquerade; Circus; Dance Suite
Used drive : PIONEER DVD-RW DVR-221L Adapter: 2 ID: 0
Read mode : SecureUtilize accurate stream : YesDefeat audio cache : YesMake use of C2 pointers : No
Read offset correction : 6Overread into Lead-In and Lead-Out : NoFill up missing offset samples with silence : YesDelete leading and trailing silent blocks : NoNull samples used in CRC calculations : YesUsed interface : Installed external ASPI interfaceGap handling : Appended to previous track
Used output format : User Defined EncoderSelected bitrate : 768 kBit/sQuality : HighAdd ID3 tag : NoCommand line compressor : C:\Program Files\Exact Audio Copy\Flac\flac.exeAdditional command line options : -6 -V -T "ARTIST=%artist%" -T "TITLE=%title%" -T "ALBUM=%albumtitle%" -T "DATE=%year%" -T "TRACKNUMBER=%tracknr%" -T "GENRE=%genre%" -T "COMMENT=%comment%" -T "ALBUMARTIST=%albuminterpret%" -T "COMPOSER=%composer%" -T "DISCNUMBER=%cdnumber%" -T "TOTALDISCS=%totalcds%" -T "TOTALTRACKS=%numtracks%" %source% -o %dest%
TOC of the extracted CD
Track | Start | Length | Start sector | End sector --------------------------------------------------------- 1 | 0:00.00 | 4:14.40 | 0 | 19089 2 | 4:14.40 | 3:42.53 | 19090 | 35792 3 | 7:57.18 | 4:39.30 | 35793 | 56747 4 | 12:36.48 | 3:46.67 | 56748 | 73764 5 | 16:23.40 | 4:21.00 | 73765 | 93339 6 | 20:44.40 | 3:53.68 | 93340 | 110882 7 | 24:38.33 | 2:47.00 | 110883 | 123407 8 | 27:25.33 | 3:11.72 | 123408 | 137804 9 | 30:37.30 | 3:13.73 | 137805 | 152352 10 | 33:51.28 | 12:59.35 | 152353 | 210812 11 | 46:50.63 | 2:59.17 | 210813 | 224254 12 | 49:50.05 | 5:09.33 | 224255 | 247462 13 | 54:59.38 | 10:14.02 | 247463 | 293514 14 | 65:13.40 | 3:29.30 | 293515 | 309219 15 | 68:42.70 | 3:00.60 | 309220 | 322779
Track 1
Filename D:\EAC\01 - Anichanov - Spartacus Suite No. 4- Bacchante's Melancholy Dance.wav
Pre-gap length 0:00:02.00
Peak level 98.9 % Extraction speed 4.9 X Track quality 100.0 % Test CRC 1F2D9FBF Copy CRC 1F2D9FBF Track not present in AccurateRip database Copy OK
Track 2
Filename D:\EAC\02 - Anichanov - Spartacus Suite No. 4- Spartacus Procession.wav
Peak level 94.2 % Extraction speed 5.3 X Track quality 100.0 % Test CRC 458FD52A Copy CRC 458FD52A Track not present in AccurateRip database Copy OK
Track 3
Filename D:\EAC\03 - Anichanov - Spartacus Suite No. 4- Death Of The Gladiator.wav
Peak level 89.9 % Extraction speed 5.9 X Track quality 100.0 % Test CRC 0091330F Copy CRC 0091330F Track not present in AccurateRip database Copy OK
Track 4
Filename D:\EAC\04 - Anichanov - Spartacus Suite No. 4- Call To Arms , Spartacus' Uprising.wav
Peak level 99.3 % Extraction speed 6.2 X Track quality 100.0 % Test CRC 7EEE5319 Copy CRC 7EEE5319 Track not present in AccurateRip database Copy OK
Track 5
Filename D:\EAC\05 - Anichanov - Masquerade (Suite From The Drama)- Waltz.wav
Peak level 97.8 % Extraction speed 6.7 X Track quality 100.0 % Test CRC D2E3CBDE Copy CRC D2E3CBDE Track not present in AccurateRip database Copy OK
Track 6
Filename D:\EAC\06 - Anichanov - Masquerade (Suite From The Drama)- Nocturne.wav
Peak level 32.9 % Extraction speed 6.8 X Track quality 100.0 % Test CRC 95E21F71 Copy CRC 95E21F71 Track not present in AccurateRip database Copy OK
Track 7
Filename D:\EAC\07 - Anichanov - Masquerade (Suite From The Drama)- Mazurka.wav
Peak level 89.5 % Extraction speed 5.2 X Track quality 99.9 % Test CRC 1EE10A6D Copy CRC 1EE10A6D Track not present in AccurateRip database Copy OK
Track 8
Filename D:\EAC\08 - Anichanov - Masquerade (Suite From The Drama)- Romance.wav
Peak level 48.0 % Extraction speed 7.3 X Track quality 100.0 % Test CRC A811D65C Copy CRC A811D65C Track not present in AccurateRip database Copy OK
Track 9
Filename D:\EAC\09 - Anichanov - Masquerade (Suite From The Drama)- Gallop.wav
Peak level 100.0 % Extraction speed 7.4 X Track quality 100.0 % Test CRC 2908497B Copy CRC 2908497B Track not present in AccurateRip database Copy OK
Track 10
Filename D:\EAC\10 - Anichanov - Circus (Music from the Ballet).wav
Peak level 97.3 % Extraction speed 9.1 X Track quality 100.0 % Test CRC 8FA7C702 Copy CRC 8FA7C702 Track not present in AccurateRip database Copy OK
Track 11
Filename D:\EAC\11 - Yablonsky - Dance Suite- Trans-Caucasian Dance.wav
Peak level 81.7 % Extraction speed 8.3 X Track quality 100.0 % Test CRC 9A772632 Copy CRC 9A772632 Track not present in AccurateRip database Copy OK
Track 12
Filename D:\EAC\12 - Yablonsky - Dance Suite- Armenian Dance.wav
Peak level 49.1 % Extraction speed 7.8 X Track quality 99.9 % Test CRC D8E772EA Copy CRC D8E772EA Track not present in AccurateRip database Copy OK
Track 13
Filename D:\EAC\13 - Yablonsky - Dance Suite- Uzbek Dance Tune.wav
Peak level 68.1 % Extraction speed 10.3 X Track quality 100.0 % Test CRC B5F6BB69 Copy CRC B5F6BB69 Track not present in AccurateRip database Copy OK
Track 14
Filename D:\EAC\14 - Yablonsky - Dance Suite- Uzbek March.wav
Peak level 78.1 % Extraction speed 9.5 X Track quality 100.0 % Test CRC 97BC4823 Copy CRC 97BC4823 Track not present in AccurateRip database Copy OK
Track 15
Filename D:\EAC\15 - Yablonsky - Dance Suite- Lezghinka.wav
Pre-gap length 0:00:00.01
Peak level 88.3 % Extraction speed 9.5 X Track quality 100.0 % Test CRC 9B7EC595 Copy CRC 9B7EC595 Track not present in AccurateRip database Copy OK
None of the tracks are present in the AccurateRip database
No errors occurred
End of status report
==== Log checksum 82F155A94C75534828A04944C65CA3B3B79425E1C8469AF3EC3BEB844625948B ====

LOG (.CUE):

REM GENRE ClassicalREM DATE 1996REM DISCID DD10CF0FREM COMMENT "ExactAudioCopy v1.0b3"PERFORMER "Anichanov, Yablonsky"TITLE "Khachaturian- Spartacus (Suite No. 4); Maquerade; Circus; Dance Suite"FILE "01 - Anichanov - Spartacus Suite No. 4- Bacchante's Melancholy Dance.wav" WAVE TRACK 01 AUDIO TITLE "Spartacus Suite No. 4: Bacchante's Melancholy Dance" PERFORMER "Anichanov" INDEX 01 00:00:00FILE "02 - Anichanov - Spartacus Suite No. 4- Spartacus Procession.wav" WAVE TRACK 02 AUDIO TITLE "Spartacus Suite No. 4: Spartacus Procession" PERFORMER "Anichanov" INDEX 01 00:00:00FILE "03 - Anichanov - Spartacus Suite No. 4- Death Of The Gladiator.wav" WAVE TRACK 03 AUDIO TITLE "Spartacus Suite No. 4: Death Of The Gladiator" PERFORMER "Anichanov" INDEX 01 00:00:00FILE "04 - Anichanov - Spartacus Suite No. 4- Call To Arms , Spartacus' Uprising.wav" WAVE TRACK 04 AUDIO TITLE "Spartacus Suite No. 4: Call To Arms / Spartacus' Uprising" PERFORMER "Anichanov" INDEX 01 00:00:00FILE "05 - Anichanov - Masquerade (Suite From The Drama)- Waltz.wav" WAVE TRACK 05 AUDIO TITLE "Masquerade (Suite From The Drama): Waltz" PERFORMER "Anichanov" INDEX 01 00:00:00FILE "06 - Anichanov - Masquerade (Suite From The Drama)- Nocturne.wav" WAVE TRACK 06 AUDIO TITLE "Masquerade (Suite From The Drama): Nocturne" PERFORMER "Anichanov" INDEX 01 00:00:00FILE "07 - Anichanov - Masquerade (Suite From The Drama)- Mazurka.wav" WAVE TRACK 07 AUDIO TITLE "Masquerade (Suite From The Drama): Mazurka" PERFORMER "Anichanov" INDEX 01 00:00:00FILE "08 - Anichanov - Masquerade (Suite From The Drama)- Romance.wav" WAVE TRACK 08 AUDIO TITLE "Masquerade (Suite From The Drama): Romance" PERFORMER "Anichanov" INDEX 01 00:00:00FILE "09 - Anichanov - Masquerade (Suite From The Drama)- Gallop.wav" WAVE TRACK 09 AUDIO TITLE "Masquerade (Suite From The Drama): Gallop" PERFORMER "Anichanov" INDEX 01 00:00:00FILE "10 - Anichanov - Circus (Music from the Ballet).wav" WAVE TRACK 10 AUDIO TITLE "Circus (Music from the Ballet)" PERFORMER "Anichanov" INDEX 01 00:00:00FILE "11 - Yablonsky - Dance Suite- Trans-Caucasian Dance.wav" WAVE TRACK 11 AUDIO TITLE "Dance Suite: Trans-Caucasian Dance" PERFORMER "Yablonsky" INDEX 01 00:00:00FILE "12 - Yablonsky - Dance Suite- Armenian Dance.wav" WAVE TRACK 12 AUDIO TITLE "Dance Suite: Armenian Dance" PERFORMER "Yablonsky" INDEX 01 00:00:00FILE "13 - Yablonsky - Dance Suite- Uzbek Dance Tune.wav" WAVE TRACK 13 AUDIO TITLE "Dance Suite: Uzbek Dance Tune" PERFORMER "Yablonsky" INDEX 01 00:00:00FILE "14 - Yablonsky - Dance Suite- Uzbek March.wav" WAVE TRACK 14 AUDIO TITLE "Dance Suite: Uzbek March" PERFORMER "Yablonsky" INDEX 01 00:00:00 TRACK 15 AUDIO TITLE "Dance Suite: Lezghinka" PERFORMER "Yablonsky" INDEX 00 03:29:29FILE "15 - Yablonsky - Dance Suite- Lezghinka.wav" WAVE INDEX 01 00:00:00
mp3
Внимание! Торрент-файл перезалит, просьба перекачать его заново, 30.01.2015 в 21:00 по МСК времени, рип переснят заново!



Показать сообщения:    

Текущее время: 05-Дек 23:32

Часовой пояс: UTC + 3


Вы не можете начинать темы
Вы не можете отвечать на сообщения
Вы не можете редактировать свои сообщения
Вы не можете удалять свои сообщения
Вы не можете голосовать в опросах
Вы не можете прикреплять файлы к сообщениям
Вы не можете скачивать файлы