(Classical) Aram Khachaturian / Хачатурян - Spartacus / Спартак - Suites Nos. 1- 3 (Andre Anichanov/Аниханов, St. Petersburg State Symphony Orchestra) Naxos-8.550801 - 1995, FLAC (tracks+.cue) lossless


 

[Цитировать]

Aram Khachaturian / Хачатурян - Spartacus / Спартак - Suites Nos. 1- 3 (Andre Anichanov/Аниханов, St. Petersburg State Symphony Orchestra) Naxos-8.550801
Жанр: Classical
Год издания диска: 1995
Издатель (лейбл): Naxos
Номер по каталогу: 8.550801
Дата записи:
Аудиокодек: FLAC
Тип рипа: tracks+.cue
Битрейт аудио: lossless
Продолжительность: 01:09:22
Источник: собственный рип
Наличие сканов в содержимом раздачи: да
Исполнители:
St. Petersburg State Symphony Orchestra
Andre Anichanov
Трэклист:
Spartacus (Suite No. 1);
01. Introduction - Dance Of The Nymphs (04:55)
02. Adagio Of Aegina And Harmodius (06:50)
03. Variation Of Aegina And Bacchanalia (04:20)
04. Scene & Dance With Crotala (03:28)
05. Dance Of The Gaditanae - Victory Of Spartacus (06:55)
Spartacus (Suite No. 2);
06. Adagio Of Spartacus And Phrygia (08:36)
07. Entrance Of The Merchants - Dance Of A Roman Courtesan - General Dance (05:16)
08. Entrance Of Spartacus - Quarrel - Treachery Of Harmodius (05:41)
09. Dance Of The Pirates (01:26)
Spartacus (Suite No. 3);
10. Dance Of The Greek Slave (02:27)
11. Dance Of An Egyptian Girl (03:56)
12. Night Incident (03:04)
13. Dance Of Phrygia - Parting Scene (05:04)
14. At The Circus (07:24)

LOG EAC CD:

Exact Audio Copy V1.0 beta 3 from 29. August 2011
EAC extraction logfile from 30. January 2015, 10:37
Anichanov / Khachaturian- Spartacus (Suites No. 1-3)
Used drive : PIONEER DVD-RW DVR-221L Adapter: 2 ID: 0
Read mode : SecureUtilize accurate stream : YesDefeat audio cache : YesMake use of C2 pointers : No
Read offset correction : 6Overread into Lead-In and Lead-Out : NoFill up missing offset samples with silence : YesDelete leading and trailing silent blocks : NoNull samples used in CRC calculations : YesUsed interface : Installed external ASPI interfaceGap handling : Appended to previous track
Used output format : User Defined EncoderSelected bitrate : 768 kBit/sQuality : HighAdd ID3 tag : NoCommand line compressor : C:\Program Files\Exact Audio Copy\Flac\flac.exeAdditional command line options : -6 -V -T "ARTIST=%artist%" -T "TITLE=%title%" -T "ALBUM=%albumtitle%" -T "DATE=%year%" -T "TRACKNUMBER=%tracknr%" -T "GENRE=%genre%" -T "COMMENT=%comment%" -T "ALBUMARTIST=%albuminterpret%" -T "COMPOSER=%composer%" -T "DISCNUMBER=%cdnumber%" -T "TOTALDISCS=%totalcds%" -T "TOTALTRACKS=%numtracks%" %source% -o %dest%
TOC of the extracted CD
Track | Start | Length | Start sector | End sector --------------------------------------------------------- 1 | 0:00.00 | 4:55.25 | 0 | 22149 2 | 4:55.25 | 6:50.00 | 22150 | 52899 3 | 11:45.25 | 4:20.00 | 52900 | 72399 4 | 16:05.25 | 3:28.00 | 72400 | 87999 5 | 19:33.25 | 6:55.00 | 88000 | 119124 6 | 26:28.25 | 8:36.00 | 119125 | 157824 7 | 35:04.25 | 5:16.00 | 157825 | 181524 8 | 40:20.25 | 5:41.00 | 181525 | 207099 9 | 46:01.25 | 1:26.00 | 207100 | 213549 10 | 47:27.25 | 2:26.74 | 213550 | 224573 11 | 49:54.24 | 3:56.00 | 224574 | 242273 12 | 53:50.24 | 3:03.55 | 242274 | 256053 13 | 56:54.04 | 5:04.20 | 256054 | 278873 14 | 61:58.24 | 7:23.40 | 278874 | 312138
Track 1
Filename D:\EAC\01 - Spartacus (Suite No. 1); Introduction - Dance Of The Nymphs.wav
Pre-gap length 0:00:02.00
Peak level 90.9 % Extraction speed 5.0 X Track quality 100.0 % Test CRC EED15B4C Copy CRC EED15B4C Track not present in AccurateRip database Copy OK
Track 2
Filename D:\EAC\02 - Spartacus (Suite No. 1); Adagio Of Aegina And Harmodius.wav
Peak level 90.8 % Extraction speed 5.3 X Track quality 99.9 % Test CRC 7E616139 Copy CRC 7E616139 Track not present in AccurateRip database Copy OK
Track 3
Filename D:\EAC\03 - Spartacus (Suite No. 1); Variation Of Aegina And Bacchanalia.wav
Peak level 82.2 % Extraction speed 6.2 X Track quality 100.0 % Test CRC 3E2320F5 Copy CRC 3E2320F5 Track not present in AccurateRip database Copy OK
Track 4
Filename D:\EAC\04 - Spartacus (Suite No. 1); Scene & Dance With Crotala.wav
Peak level 93.3 % Extraction speed 6.3 X Track quality 100.0 % Test CRC C65F5B48 Copy CRC C65F5B48 Track not present in AccurateRip database Copy OK
Track 5
Filename D:\EAC\05 - Spartacus (Suite No. 1); Dance Of The Gaditanae - Victory Of Spartacus.wav
Peak level 93.3 % Extraction speed 6.5 X Track quality 99.9 % Test CRC AFDCC7F2 Copy CRC AFDCC7F2 Track not present in AccurateRip database Copy OK
Track 6
Filename D:\EAC\06 - Spartacus (Suite No. 2); Adagio Of Spartacus And Phrygia.wav
Peak level 93.3 % Extraction speed 8.2 X Track quality 100.0 % Test CRC BB285CE4 Copy CRC BB285CE4 Track not present in AccurateRip database Copy OK
Track 7
Filename D:\EAC\07 - Spartacus (Suite No. 2); Entrance Of The Merchants - Dance Of A Roman Courtesan - General Dance.wav
Peak level 74.2 % Extraction speed 8.2 X Track quality 100.0 % Test CRC E3BF2672 Copy CRC E3BF2672 Track not present in AccurateRip database Copy OK
Track 8
Filename D:\EAC\08 - Spartacus (Suite No. 2); Entrance Of Spartacus - Quarrel - Treachery Of Harmodius.wav
Peak level 95.5 % Extraction speed 8.8 X Track quality 100.0 % Test CRC 55EC8A52 Copy CRC 55EC8A52 Track not present in AccurateRip database Copy OK
Track 9
Filename D:\EAC\09 - Spartacus (Suite No. 2); Dance Of The Pirates.wav
Peak level 79.0 % Extraction speed 4.6 X Track quality 99.8 % Test CRC 80122D4C Copy CRC 80122D4C Track not present in AccurateRip database Copy OK
Track 10
Filename D:\EAC\10 - Spartacus (Suite No. 3); Dance Of The Greek Slave.wav
Peak level 92.4 % Extraction speed 7.9 X Track quality 100.0 % Test CRC C8178FB7 Copy CRC C8178FB7 Track not present in AccurateRip database Copy OK
Track 11
Filename D:\EAC\11 - Spartacus (Suite No. 3); Dance Of An Egyptian Girl.wav
Peak level 60.8 % Extraction speed 8.8 X Track quality 100.0 % Test CRC 2729FD1B Copy CRC 2729FD1B Track not present in AccurateRip database Copy OK
Track 12
Filename D:\EAC\12 - Spartacus (Suite No. 3); Night Incident.wav
Peak level 72.7 % Extraction speed 8.8 X Track quality 100.0 % Test CRC 736F4EF6 Copy CRC 736F4EF6 Track not present in AccurateRip database Copy OK
Track 13
Filename D:\EAC\13 - Spartacus (Suite No. 3); Dance Of Phrygia - Parting Scene.wav
Peak level 62.6 % Extraction speed 9.7 X Track quality 100.0 % Test CRC 22125BA5 Copy CRC 22125BA5 Track not present in AccurateRip database Copy OK
Track 14
Filename D:\EAC\14 - Spartacus (Suite No. 3); At The Circus.wav
Peak level 96.4 % Extraction speed 9.2 X Track quality 99.9 % Test CRC 6943D241 Copy CRC 6943D241 Track not present in AccurateRip database Copy OK
None of the tracks are present in the AccurateRip database
No errors occurred
End of status report
==== Log checksum 8604C6583281204F0EEF881B65CB545C6EEA301060523279847DDC7863E63F8E ====

LOG (.CUE):

REM GENRE ClassicalREM DATE 1995REM DISCID CF10410EREM COMMENT "ExactAudioCopy v1.0b3"PERFORMER "Anichanov"TITLE "Khachaturian- Spartacus (Suites No. 1-3)"FILE "01 - Spartacus (Suite No. 1); Introduction - Dance Of The Nymphs.wav" WAVE TRACK 01 AUDIO TITLE "Spartacus (Suite No. 1); Introduction - Dance Of The Nymphs" PERFORMER "Anichanov" INDEX 01 00:00:00FILE "02 - Spartacus (Suite No. 1); Adagio Of Aegina And Harmodius.wav" WAVE TRACK 02 AUDIO TITLE "Spartacus (Suite No. 1); Adagio Of Aegina And Harmodius" PERFORMER "Anichanov" INDEX 01 00:00:00FILE "03 - Spartacus (Suite No. 1); Variation Of Aegina And Bacchanalia.wav" WAVE TRACK 03 AUDIO TITLE "Spartacus (Suite No. 1); Variation Of Aegina And Bacchanalia" PERFORMER "Anichanov" INDEX 01 00:00:00FILE "04 - Spartacus (Suite No. 1); Scene & Dance With Crotala.wav" WAVE TRACK 04 AUDIO TITLE "Spartacus (Suite No. 1); Scene & Dance With Crotala" PERFORMER "Anichanov" INDEX 01 00:00:00FILE "05 - Spartacus (Suite No. 1); Dance Of The Gaditanae - Victory Of Spartacus.wav" WAVE TRACK 05 AUDIO TITLE "Spartacus (Suite No. 1); Dance Of The Gaditanae - Victory Of Spartacus" PERFORMER "Anichanov" INDEX 01 00:00:00FILE "06 - Spartacus (Suite No. 2); Adagio Of Spartacus And Phrygia.wav" WAVE TRACK 06 AUDIO TITLE "Spartacus (Suite No. 2); Adagio Of Spartacus And Phrygia" PERFORMER "Anichanov" INDEX 01 00:00:00FILE "07 - Spartacus (Suite No. 2); Entrance Of The Merchants - Dance Of A Roman Courtesan - General Dance.wav" WAVE TRACK 07 AUDIO TITLE "Spartacus (Suite No. 2); Entrance Of The Merchants - Dance Of A Roman Courtes..." PERFORMER "Anichanov" INDEX 01 00:00:00FILE "08 - Spartacus (Suite No. 2); Entrance Of Spartacus - Quarrel - Treachery Of Harmodius.wav" WAVE TRACK 08 AUDIO TITLE "Spartacus (Suite No. 2); Entrance Of Spartacus - Quarrel - Treachery Of Harmo..." PERFORMER "Anichanov" INDEX 01 00:00:00FILE "09 - Spartacus (Suite No. 2); Dance Of The Pirates.wav" WAVE TRACK 09 AUDIO TITLE "Spartacus (Suite No. 2); Dance Of The Pirates" PERFORMER "Anichanov" INDEX 01 00:00:00FILE "10 - Spartacus (Suite No. 3); Dance Of The Greek Slave.wav" WAVE TRACK 10 AUDIO TITLE "Spartacus (Suite No. 3); Dance Of The Greek Slave" PERFORMER "Anichanov" INDEX 01 00:00:00FILE "11 - Spartacus (Suite No. 3); Dance Of An Egyptian Girl.wav" WAVE TRACK 11 AUDIO TITLE "Spartacus (Suite No. 3); Dance Of An Egyptian Girl" PERFORMER "Anichanov" INDEX 01 00:00:00FILE "12 - Spartacus (Suite No. 3); Night Incident.wav" WAVE TRACK 12 AUDIO TITLE "Spartacus (Suite No. 3); Night Incident" PERFORMER "Anichanov" INDEX 01 00:00:00FILE "13 - Spartacus (Suite No. 3); Dance Of Phrygia - Parting Scene.wav" WAVE TRACK 13 AUDIO TITLE "Spartacus (Suite No. 3); Dance Of Phrygia - Parting Scene" PERFORMER "Anichanov" INDEX 01 00:00:00FILE "14 - Spartacus (Suite No. 3); At The Circus.wav" WAVE TRACK 14 AUDIO TITLE "Spartacus (Suite No. 3); At The Circus" PERFORMER "Anichanov" INDEX 01 00:00:00
mp3
Внимание! Торрент-файл перезалит, просьба перекачать его заново, 30.01.2015 в 21:00 по МСК времени, рип переснят заново!



Показать сообщения:    

Текущее время: 03-Дек 09:45

Часовой пояс: UTC + 3


Вы не можете начинать темы
Вы не можете отвечать на сообщения
Вы не можете редактировать свои сообщения
Вы не можете удалять свои сообщения
Вы не можете голосовать в опросах
Вы не можете прикреплять файлы к сообщениям
Вы не можете скачивать файлы