(Classical/Minimalism) Michael Nyman - Symphony No.11 \'Hillsborough Memorial\' (Kathryn Rudge/Josep Vicent) - 2014, FLAC (image+.cue) lossless


 

[Цитировать]

Michael Nyman - Symphony No.11 'Hillsborough Memorial'
Жанр: Classical/Minimalism
Страна-производитель диска: EU
Год издания диска: 2014
Издатель (лейбл): Michael Nyman Records
Номер по каталогу: MNRCD136
Дата записи: 2014
Аудиокодек: FLAC
Тип рипа: image+.cue
Битрейт аудио: lossless
Продолжительность: 40'17"
Источник: собственный рип
Наличие сканов в содержимом раздачи: да
Symphony No.11 'Hillsborough Memorial':
1. I. The Singing of the Names
2. II. Family Reflections
3. III. The 96
4. IV. Memorial
Исполнители:
Kathryn Rudge, mezzo-soprano
Royal Liverpool Philharmonic Orchestra
Liverpool Philharmonic Youth Choir
Josep Vicent
-

Лог создания рипа

Exact Audio Copy V1.0 beta 4 from 7. December 2014
EAC extraction logfile from 30. January 2015, 18:53
Michael Nyman / Symphony No.11 Hillsborough Memorial
Used drive : TSSTcorpDVDWBD TS-LB23A Adapter: 1 ID: 0
Read mode : SecureUtilize accurate stream : YesDefeat audio cache : YesMake use of C2 pointers : No
Read offset correction : 6Overread into Lead-In and Lead-Out : NoFill up missing offset samples with silence : YesDelete leading and trailing silent blocks : NoNull samples used in CRC calculations : YesUsed interface : Native Win32 interface for Win NT & 2000
Used output format : User Defined EncoderSelected bitrate : 128 kBit/sQuality : HighAdd ID3 tag : YesCommand line compressor : C:\Program Files (x86)\Exact Audio Copy\Flac\flac.exeAdditional command line options : -T "COMMENT=Ripped by GFox" -V -8 %source%
TOC of the extracted CD
Track | Start | Length | Start sector | End sector --------------------------------------------------------- 1 | 0:00.00 | 8:50.52 | 0 | 39801 2 | 8:50.52 | 8:35.65 | 39802 | 78491 3 | 17:26.42 | 10:14.17 | 78492 | 124558 4 | 27:40.59 | 12:36.23 | 124559 | 181281
Range status and errors
Selected range
Filename D:\Downloads\Michael Nyman - Symphony No.11 Hillsborough Memorial.wav
Peak level 100.0 % Extraction speed 1.4 X Range quality 100.0 % Test CRC 287B5BC5 Copy CRC 287B5BC5 Copy OK
No errors occurred
AccurateRip summary
Track 1 not present in databaseTrack 2 not present in databaseTrack 3 not present in databaseTrack 4 not present in database
None of the tracks are present in the AccurateRip database
End of status report
==== Log checksum 64C5F4B3E0DADF0A62B9960268ED88C450079C8827B103FBD6501DD8ECF08D64 ====
-Доп. информация: Symphony No.11 Hillsborough Memorial посвящена памяти жертв трагедии 15 апреля 1989 года на ливерпульском стадионе Хиллсборо, когда в результате давки, возникшей во время полуфинального матча Кубка Англии по футболу между клубами "Ноттингем Форест" и "Ливерпуль" погибли 96 болельщиков "Ливерпуля". Знаменитая композиция "Memorial" ранее использовалась Найманом в саундтреке к фильму Питера Гринуэя "Повар, вор, его жена и её любовник".-



Показать сообщения:    

Текущее время: 05-Дек 17:34

Часовой пояс: UTC + 3


Вы не можете начинать темы
Вы не можете отвечать на сообщения
Вы не можете редактировать свои сообщения
Вы не можете удалять свои сообщения
Вы не можете голосовать в опросах
Вы не можете прикреплять файлы к сообщениям
Вы не можете скачивать файлы