(Classical) Goffredo Petrassi - Partita; Divertimento; Quattro inni sacri; Coro di morti - Carlo Putelli, Davide Malvestio, Nuovo Coro Lirico Sinfonico Romano, Orchestra Sinfonica di Roma, Francesco La Vecchia - 2013, FLAC (image+.cue) lossless


 

[Цитировать]

Goffredo Petrassi - Partita; Divertimento; Quattro inni sacri; Coro di morti - Carlo Putelli, Davide Malvestio, Nuovo Coro Lirico Sinfonico Romano, Orchestra Sinfonica di Roma, Francesco La Vecchia
Жанр: Classical
Год издания диска: 2013
Издатель (лейбл): Naxos
Номер по каталогу: 8.572411
Дата записи: 2007, 2011, 2012
Аудиокодек: FLAC
Тип рипа: image+.cue
Битрейт аудио: lossless
Продолжительность: 76:01
Источник: собственный рип
Наличие сканов в содержимом раздачи: да
Треклист:
Goffredo Petrassi (1904-2003)
[1]-[4] Divertimento in C major (1930)
[5]-[7] Partita (1932)
[8]-[11] Quattro inni sacri (1942, rev. 1950) * †
[12] Coro di morti – Madrigale drammatico (1940-1941) †
Исполнители:
Carlo Putelli tenor *
Davide Malvestio bass *
Nuovo Coro Lirico Sinfonico Romano * †
Orchestra Sinfonica di Roma
Francesco La Vecchia

Лог создания рипа

Exact Audio Copy V1.0 beta 3 from 29. August 2011
EAC extraction logfile from 22. January 2015, 21:58
Orchestra Sinfonica di Roma, Francesco La Vecchia / Petrassi - Partita; Quattro inni sacri; Coro di morti
Used drive : HL-DT-STDVDRAM GU70N Adapter: 0 ID: 0
Read mode : SecureUtilize accurate stream : YesDefeat audio cache : YesMake use of C2 pointers : No
Read offset correction : 48Overread into Lead-In and Lead-Out : NoFill up missing offset samples with silence : YesDelete leading and trailing silent blocks : NoNull samples used in CRC calculations : YesUsed interface : Native Win32 interface for Win NT & 2000
Used output format : User Defined EncoderSelected bitrate : 128 kBit/sQuality : HighAdd ID3 tag : NoCommand line compressor : C:\Program Files (x86)\Exact Audio Copy\Flac\flac.exeAdditional command line options : -V -8 -T "Date=%year%" -T "Genre=%genre%" %source%
TOC of the extracted CD
Track | Start | Length | Start sector | End sector --------------------------------------------------------- 1 | 0:00.00 | 5:06.03 | 0 | 22952 2 | 5:06.03 | 6:20.36 | 22953 | 51488 3 | 11:26.39 | 6:02.06 | 51489 | 78644 4 | 17:28.45 | 4:23.13 | 78645 | 98382 5 | 21:51.58 | 5:59.00 | 98383 | 125307 6 | 27:50.58 | 7:51.71 | 125308 | 160703 7 | 35:42.54 | 5:04.05 | 160704 | 183508 8 | 40:46.59 | 4:03.17 | 183509 | 201750 9 | 44:50.01 | 2:58.08 | 201751 | 215108 10 | 47:48.09 | 3:57.42 | 215109 | 232925 11 | 51:45.51 | 7:32.45 | 232926 | 266870 12 | 59:18.21 | 16:40.54 | 266871 | 341924
Range status and errors
Selected range
Filename C:\temp\Naxos_8.572411 - Petrassi - Partita; Quattro inni sacri; Coro di morti\Petrassi - Partita; Quattro inni sacri; Coro di morti.wav
Peak level 99.9 % Extraction speed 2.3 X Range quality 99.9 % Test CRC 5DAF4F03 Copy CRC 5DAF4F03 Copy OK
No errors occurred
AccurateRip summary
Track 1 accurately ripped (confidence 2) [CD7520F5] (AR v2)Track 2 accurately ripped (confidence 2) [D172C373] (AR v2)Track 3 accurately ripped (confidence 2) [8AB2A640] (AR v2)Track 4 accurately ripped (confidence 2) [BAE83A04] (AR v2)Track 5 accurately ripped (confidence 2) [2393DF29] (AR v2)Track 6 accurately ripped (confidence 2) [4648DB99] (AR v2)Track 7 accurately ripped (confidence 2) [E42019B5] (AR v2)Track 8 accurately ripped (confidence 2) [7255E281] (AR v2)Track 9 accurately ripped (confidence 2) [90B7F3F6] (AR v2)Track 10 accurately ripped (confidence 2) [A0816A6F] (AR v2)Track 11 accurately ripped (confidence 2) [37CCF1B1] (AR v2)Track 12 accurately ripped (confidence 2) [288ECEB1] (AR v2)
All tracks accurately ripped
End of status report
==== Log checksum F90524A1A15AB1027763CE0DE987A01050651B55A4CD770846DD109F58D1A07F ====



Показать сообщения:    

Текущее время: 05-Дек 23:39

Часовой пояс: UTC + 3


Вы не можете начинать темы
Вы не можете отвечать на сообщения
Вы не можете редактировать свои сообщения
Вы не можете удалять свои сообщения
Вы не можете голосовать в опросах
Вы не можете прикреплять файлы к сообщениям
Вы не можете скачивать файлы