(Classical) Jean Sibelius - Symphonies 1 & 7 - San Francisco Symphony - Herbert Blomstedt - 1996, FLAC (image+.cue) lossless


 

[Цитировать]

Jean Sibelius - Symphonies 1 & 7 - San Francisco Symphony - Herbert Blomstedt
Жанр: Classical
Страна-производитель диска: Germany
Год издания диска: 1996
Издатель (лейбл): Decca
Номер по каталогу: 444 541-2
Дата записи: 1994
Аудиокодек: FLAC
Тип рипа: image+.cue
Битрейт аудио: lossless
Продолжительность: 61.53
Источник: собственный рип
Наличие сканов в содержимом раздачи: да
Треклист:
Jean Sibelius 1865-1957
Symphony No.1 in E minor, op.39
1. I Andante ma non troppo — Allegro energico 11.27
2. II Andante (ma non troppo lento) 9.46
3. III Scherzo: Allegro 5.09
4. IV Finale (quasi una fantasia) 13.06
5. Symphony No.7 in С major, op. 105 22.25
Исполнители:
San Francisco Symphony - Herbert Blomstedt

Лог создания рипа

Exact Audio Copy V1.0 beta 3 from 29. August 2011
Отчёт EAC об извлечении, выполненном 25. января 2015, 17:30
San Francisco Symphony & Herbert Blomstedt / Sibelius‧The Symphonies (Disc 1)
Дисковод: TSSTcorpBDDVDW SE-506BB Adapter: 5 ID: 0
Режим чтения : ДостоверностьИспользование точного потока : ДаОтключение кэша аудио : ДаИспользование указателей C2 : Нет
Коррекция смещения при чтении : 6Способность читать области Lead-in и Lead-out : НетЗаполнение пропущенных сэмплов тишиной : ДаУдаление блоков с тишиной в начале и конце : НетПри вычислениях CRC использовались нулевые сэмплы : ДаИнтерфейс : Встроенный Win32-интерфейс для Win NT/2000
Выходной формат : Пользовательский кодировщикВыбранный битрейт : 768 kBit/sКачество : ВысокийДобавление ID3-тега : НетУтилита сжатия : E:\Program Files\audio\EAC\FLAC\FLAC.EXEДополнительные параметры : -6 -V -T "ARTIST=%artist%" -T "TITLE=%title%" -T "ALBUM=%albumtitle%" -T "DATE=%year%" -T "TRACKNUMBER=%tracknr%" -T "GENRE=%genre%" -T "COMMENT=%comment%" -T "BAND=%albuminterpret%" -T "ALBUMARTIST=%albuminterpret%" -T "COMPOSER=%composer%" %haslyrics%--tag-from-file=LYRICS="%lyricsfile%"%haslyrics% -T "DISCNUMBER=%cdnumber%" -T "TOTALDISCS=%totalcds%" -T "TOTALTRACKS=%numtracks%" %hascover%--picture="%coverfile%"%hascover% %source% -o %dest%
TOC извлечённого CD
Трек | Старт | Длительность | Начальный сектор | Конечный сектор --------------------------------------------------------------------- 1 | 0:00.32 | 11:33.25 | 32 | 52031 2 | 11:33.57 | 9:50.50 | 52032 | 96331 3 | 21:24.32 | 5:13.25 | 96332 | 119831 4 | 26:37.57 | 13:20.63 | 119832 | 179894 5 | 39:58.45 | 22:27.00 | 179895 | 280919
Характеристики диапазона извлечения и сообщения об ошибках
Выбранный диапазон
Имя файла M:\_Music\Classics\Sibelius - Symphonies 1 & 7 - Herbert Blomstedt\San Francisco Symphony & Herbert Blomstedt - Sibelius‧The Symphonies (Disc 1).wav
Пиковый уровень 100.0 % Скорость извлечения 2.9 X Качество диапазона 99.9 % CRC копии E841FA51 Копирование... OK
Ошибок не произошло
Конец отчёта
==== Контрольная сумма отчёта F1E70D0FE3DF1A4DA2961EF317A8CD0F8A7424DE2B0FF2BC3A40002C25FF5D8B ====

Содержание индексной карты (.CUE)

REM GENRE ClassicalREM DATE 2003REM DISCID 450EA105REM COMMENT "ExactAudioCopy v1.0b3"PERFORMER "San Francisco Symphony & Herbert Blomstedt"TITLE "Sibelius.The Symphonies (Disc 1)"FILE "San Francisco Symphony & Herbert Blomstedt - Sibelius.flac" WAVE TRACK 01 AUDIO TITLE "Sibelius.Symphony No.1 in E minior, Op.39:I. Andante ma non troppo–Allegro en..." PERFORMER "San Francisco Symphony & Herbert Blomstedt" INDEX 00 00:00:00 INDEX 01 00:00:32 TRACK 02 AUDIO TITLE "Sibelius.Symphony No.1 in E minior, Op.39:II. Andante.ma non troppo lento." PERFORMER "San Francisco Symphony & Herbert Blomstedt" INDEX 00 11:28:07 INDEX 01 11:33:57 TRACK 03 AUDIO TITLE "Sibelius.Symphony No.1 in E minior, Op.39:III. Scherzo:Allegro" PERFORMER "San Francisco Symphony & Herbert Blomstedt" INDEX 00 21:21:32 INDEX 01 21:24:32 TRACK 04 AUDIO TITLE "Sibelius.Symphony No.1 in E minior, Op.39:IV. Finale.quasi una fantasia." PERFORMER "San Francisco Symphony & Herbert Blomstedt" INDEX 00 26:34:70 INDEX 01 26:37:57 TRACK 05 AUDIO TITLE "Sibelius.Symphony No.7 in C major, Op.105" PERFORMER "San Francisco Symphony & Herbert Blomstedt" INDEX 00 39:45:45 INDEX 01 39:58:45
Доп. информация: Отличное исполнение, по мне, исполнение 1-й - лучшее.



Показать сообщения:    

Текущее время: 11-Дек 16:55

Часовой пояс: UTC + 3


Вы не можете начинать темы
Вы не можете отвечать на сообщения
Вы не можете редактировать свои сообщения
Вы не можете удалять свои сообщения
Вы не можете голосовать в опросах
Вы не можете прикреплять файлы к сообщениям
Вы не можете скачивать файлы