(Orchestral) Чайковский - Симфония №3 • Торжественная увертюра 1812 год • увертюра Гамлет (London Philharmonic Orchestra - Sir Adrian Boult) - 2000, FLAC (image+.cue) lossless


 

[Цитировать]

Sir Adrian Boult
London Philharmonic Orchestra
Tchaikovsky: Symphony No.3 • Overture 1812 • Hamlet
-
-- Жанр: Orchestral
Страна-производитель диска: EU
Год издания диска: 2000
Издатель (лейбл): Retrospective
Дата записи: 1952/56
Аудиокодек: FLAC
Тип рипа: image+.cue
Битрейт аудио: lossless
Продолжительность: 78'36''
Источник: собственный рип
Наличие сканов в содержимом раздачи: да
Треклист:
[01] Симфония №3: I. Introduzione ed Allegro
[02] II. Alla tedesca - Allegro moderato
[03] III. Andante
[04] IV. Scherzo. Allegro vivo
[05] V. Finale. Allegro con fuoco
[06] Увертюра 1812 год
[07] Увертюра Гамлет
Исполнители:
London Philharmonic Orchestra - Sir Adrian Boult-

Лог создания рипа

Exact Audio Copy V1.0 beta 4 from 7. December 2014
EAC extraction logfile from 12. January 2015, 15:10
London Philharmonic Orchestra - Sir Adrian Boult / Tchaikovsky - Symphony No.3
Used drive : HL-DT-STDVD+-RW GU90N Adapter: 1 ID: 0
Read mode : SecureUtilize accurate stream : YesDefeat audio cache : YesMake use of C2 pointers : No
Read offset correction : 102Overread into Lead-In and Lead-Out : NoFill up missing offset samples with silence : YesDelete leading and trailing silent blocks : NoNull samples used in CRC calculations : YesUsed interface : Native Win32 interface for Win NT & 2000
Used output format : User Defined EncoderSelected bitrate : 1024 kBit/sQuality : HighAdd ID3 tag : NoCommand line compressor : C:\Program Files (x86)\FLAC\flac.exeAdditional command line options : -T "COMMENT=rip by el coronel" -8 -V %source%
TOC of the extracted CD
Track | Start | Length | Start sector | End sector --------------------------------------------------------- 1 | 0:00.00 | 12:56.20 | 0 | 58219 2 | 12:56.20 | 7:58.04 | 58220 | 94073 3 | 20:54.24 | 8:06.30 | 94074 | 130553 4 | 29:00.54 | 5:54.04 | 130554 | 157107 5 | 34:54.58 | 8:10.04 | 157108 | 193861 6 | 43:04.62 | 17:33.56 | 193862 | 272892 7 | 60:38.43 | 17:55.53 | 272893 | 353570
Range status and errors
Selected range
Filename F:\Music\Tchaikovsky 3 Boult\CD.wav
Peak level 100.0 % Extraction speed 4.1 X Range quality 100.0 % Test CRC E31D56C7 Copy CRC E31D56C7 Copy OK
No errors occurred
AccurateRip summary
Track 1 accurately ripped (confidence 1) [DB33ECE9] (AR v2)Track 2 accurately ripped (confidence 1) [B71A9706] (AR v2)Track 3 accurately ripped (confidence 1) [E841F02B] (AR v2)Track 4 accurately ripped (confidence 1) [7C7F4335] (AR v2)Track 5 accurately ripped (confidence 1) [092DC996] (AR v2)Track 6 accurately ripped (confidence 1) [B622D6B2] (AR v2)Track 7 accurately ripped (confidence 1) [E8F79828] (AR v2)
All tracks accurately ripped
End of status report
---- CUETools DB Plugin V2.1.4
[CTDB TOCID: mb3HWYxz6wZokNSTWQoWGiH0l.o-] disk not present in databaseSubmit result: mb3HWYxz6wZokNSTWQoWGiH0l.o- has been uploaded
==== Log checksum FC499D852DEFE23ACA7DCD7245024C728BC941D0B13B6FEB988730592410404B ====

Содержание индексной карты (.CUE)

REM GENRE ClassicalREM DATE 2000REM DISCID 67126A07REM COMMENT "ExactAudioCopy v1.0b4"CATALOG 5028421931852PERFORMER "London Philharmonic Orchestra - Sir Adrian Boult"TITLE "Tchaikovsky - Symphony No.3"FILE "CD.flac" WAVE TRACK 01 AUDIO TITLE "Symphony No.3: I. Introduzione ed Allegro" PERFORMER "London Philharmonic Orchestra - Sir Adrian Boult" ISRC GBF075611011 INDEX 01 00:00:00 TRACK 02 AUDIO TITLE "II. Alla tedesca - Allegro moderato" PERFORMER "London Philharmonic Orchestra - Sir Adrian Boult" ISRC GBF075611012 INDEX 01 12:56:20 TRACK 03 AUDIO TITLE "III. Andante" PERFORMER "London Philharmonic Orchestra - Sir Adrian Boult" ISRC GBF075611013 INDEX 01 20:54:24 TRACK 04 AUDIO TITLE "IV. Scherzo. Allegro vivo" PERFORMER "London Philharmonic Orchestra - Sir Adrian Boult" ISRC GBF075611014 INDEX 01 29:00:54 TRACK 05 AUDIO TITLE "V. Finale. Allegro con fuoco" PERFORMER "London Philharmonic Orchestra - Sir Adrian Boult" ISRC GBF075611015 INDEX 01 34:54:58 TRACK 06 AUDIO TITLE "Ouverture 1812" PERFORMER "London Philharmonic Orchestra - Sir Adrian Boult" ISRC GBF075210430 INDEX 01 43:04:62 TRACK 07 AUDIO TITLE "Ouverture Hamlet" PERFORMER "London Philharmonic Orchestra - Sir Adrian Boult" ISRC GBF075210420 INDEX 01 60:38:43
-



Показать сообщения:    

Текущее время: 06-Дек 20:55

Часовой пояс: UTC + 3


Вы не можете начинать темы
Вы не можете отвечать на сообщения
Вы не можете редактировать свои сообщения
Вы не можете удалять свои сообщения
Вы не можете голосовать в опросах
Вы не можете прикреплять файлы к сообщениям
Вы не можете скачивать файлы