(Baroque concerto) Francois Couperin - Les Nations (Musica Antiqua Koln, Reinhard Goebel) - 1984, FLAC (image+.cue) lossless


 

[Цитировать]

Francois Couperin - Les Nations

Жанр: Baroque concerto
Страна-производитель диска: Made in Germany
Год издания диска: 1984
Издатель (лейбл): Archiv Produktion / Polydor International GmbH, Hamburg
Номер по каталогу: 427 164-2
Дата записи: 1983
Аудиокодек: FLAC
Тип рипа: image+.cue
Битрейт аудио: lossless
Продолжительность: 48'12 + 48'06
Источник: релизер
сайт-источник/ник/другое: Saoshya
Наличие сканов в содержимом раздачи: да
Треклист:

скрытый текст

CD 1

скрытый текст

Premier Ordre: La Francoise
01. Sonata [6:18]
02. Allemende. Sans lenteur [3:37]
03. Premiere Courante. Noblement [1:23]
04. Seconde Courante. Un peu plus viste [1:18]
05. Sarabande. Gravement [2:00]
06. Gigue. Gayement [1:15]
07. Chaconne ou Passacaille. Moderement [2:33]
08. Gavotte [0:56]
09. Menuet [1:08]
[20'15"]
Second Ordre: L'Espagnole
10. Sonata [7:45]
11. Allemande. Gracieusement [2:55]
12. Courante. Noblement [1:42]
13. Second Courante. Un peu plus vivement [1:37]
14. Sarabande. Gravement [1:41]
15. Gigue louree. Moderement [2:16]
16. Gavotte. Tendrement, sans lenteur [0:56]
17. Rondeau. Affectueusement [2:28]
18. Bourree. Gayement [0:51]
19. Double de la Bourree precedente [0:53]
20. Passacaille. Noblement et marque [4:30]
[27'30"]
CD 2

скрытый текст

Troisieme Ordre: L'Imperiale
01. Sonata [9:49]
02. Allemande. Sans lenteur [2:21]
03. Courante [1:26]
04. Seconde Courante. Plus marquee [1:31]
05. Sarabonde. Tendrement [2:16]
06. Bourree. Gayment [1:01]
07. Gigue. D'une legerete moderee [1:10]
08. Rondeau. Gayement [2:07]
09. Chaconne [4:31]
10. Menuet [1:07]
[27'10"]
Quatrieme Ordre: La Piemontoise
11. Sonata [8:16]
12. Allemande. Noblement et sans lenteur [2:37]
13. Courante [1:24]
14. Seconde Courante. Un peu plus gayement [1:50]
15. Sarabande. Tendrement [2:31]
16. Rondeau. Gayement [2:02]
17. Gigue. Affectueusement, quoy que legerement [1:56]
[20'36"]
Исполнители:

скрытый текст

Francois Couperin (1668-1733)
Les Nations, 1726
Performers:
Reinhard Goebel, Hajo Bas (violin);
Wilbert Hazelzet, Philippe Suzanne (flute);
Jaap ter Linden (viola da gamba);
Henk Bouman (harpsichord)
Musica Antiqua Koln
Reinhard Goebel, director
Recording: Bamberg, Zentralsaal, 1983

Лог создания рипа

CD1

скрытый текст

Exact Audio Copy V0.99 prebeta 4 from 23. January 2008
EAC extraction logfile from 5. September 2012, 15:12
Franзois Couperin / Les Nations CD1
Used drive : SONY DVD-ROM DDU1615 Adapter: 0 ID: 0
Read mode : Secure
Utilize accurate stream : Yes
Defeat audio cache : Yes
Make use of C2 pointers : No
Read offset correction : 6
Overread into Lead-In and Lead-Out : No
Fill up missing offset samples with silence : Yes
Delete leading and trailing silent blocks : No
Null samples used in CRC calculations : Yes
Used interface : Native Win32 interface for Win NT & 2000
Used output format : User Defined Encoder
Selected bitrate : 1024 kBit/s
Quality : High
Add ID3 tag : No
Command line compressor : C:\Program Files\REACT\REACT.exe
Additional command line options : REACT %o %s %d "%a" "%g" "%t" "%n" "%x" "%y" "%m" "%e" "%f" "%b" %r
TOC of the extracted CD
Track | Start | Length | Start sector | End sector
---------------------------------------------------------
1 | 0:00.33 | 6:18.62 | 33 | 28444
2 | 6:19.20 | 3:37.20 | 28445 | 44739
3 | 9:56.40 | 1:23.48 | 44740 | 51012
4 | 11:20.13 | 1:18.40 | 51013 | 56902
5 | 12:38.53 | 2:00.55 | 56903 | 65957
6 | 14:39.33 | 1:15.40 | 65958 | 71622
7 | 15:54.73 | 2:33.22 | 71623 | 83119
8 | 18:28.20 | 0:56.00 | 83120 | 87319
9 | 19:24.20 | 1:08.45 | 87320 | 92464
10 | 20:32.65 | 7:45.40 | 92465 | 127379
11 | 28:18.30 | 2:55.30 | 127380 | 140534
12 | 31:13.60 | 1:42.60 | 140535 | 148244
13 | 32:56.45 | 1:37.08 | 148245 | 155527
14 | 34:33.53 | 1:41.30 | 155528 | 163132
15 | 36:15.08 | 2:16.32 | 163133 | 173364
16 | 38:31.40 | 0:56.50 | 173365 | 177614
17 | 39:28.15 | 2:28.18 | 177615 | 188732
18 | 41:56.33 | 0:51.65 | 188733 | 192622
19 | 42:48.23 | 0:53.65 | 192623 | 196662
20 | 43:42.13 | 4:30.20 | 196663 | 216932
Range status and errors
Selected range
Filename C:\EAC-CD Extraction\Couperin - Les Nations - Musica Antiqua Kцln (Archiv)\Franзois Couperin - Les Nations CD1.wav
Peak level 98.1 %
Range quality 99.9 %
Copy CRC 484A7CB3
Copy OK
No errors occurred
AccurateRip summary
Track 1 cannot be verified as accurate (confidence 5) [86FBDE8B], AccurateRip returned [E144EB89]
Track 2 cannot be verified as accurate (confidence 5) [E8CC886A], AccurateRip returned [059490B9]
Track 3 cannot be verified as accurate (confidence 5) [07D2A823], AccurateRip returned [333DC037]
Track 4 cannot be verified as accurate (confidence 5) [A865ECD2], AccurateRip returned [32DF8A63]
Track 5 cannot be verified as accurate (confidence 5) [B4D8A2F7], AccurateRip returned [D021B001]
Track 6 cannot be verified as accurate (confidence 5) [5D0A09A1], AccurateRip returned [A7EB08B1]
Track 7 cannot be verified as accurate (confidence 5) [67D1FA75], AccurateRip returned [258C6767]
Track 8 cannot be verified as accurate (confidence 5) [BAD35C49], AccurateRip returned [D341DEFD]
Track 9 cannot be verified as accurate (confidence 5) [32B6CDCF], AccurateRip returned [BBC8550D]
Track 10 cannot be verified as accurate (confidence 5) [4D8BA2FB], AccurateRip returned [CFABA1ED]
Track 11 cannot be verified as accurate (confidence 5) [B5F9E79F], AccurateRip returned [C648BD55]
Track 12 cannot be verified as accurate (confidence 5) [A709C58C], AccurateRip returned [B54D68C0]
Track 13 cannot be verified as accurate (confidence 5) [67AD8825], AccurateRip returned [FAF30560]
Track 14 cannot be verified as accurate (confidence 5) [0D64744B], AccurateRip returned [57BD35BC]
Track 15 cannot be verified as accurate (confidence 5) [64F5886D], AccurateRip returned [1CE021FD]
Track 16 cannot be verified as accurate (confidence 5) [E670E6B1], AccurateRip returned [F8AD95F9]
Track 17 cannot be verified as accurate (confidence 5) [DC91DB08], AccurateRip returned [A62572E2]
Track 18 cannot be verified as accurate (confidence 5) [ACA8CDA8], AccurateRip returned [95FACE51]
Track 19 cannot be verified as accurate (confidence 5) [2B50E1D2], AccurateRip returned [340BB361]
Track 20 cannot be verified as accurate (confidence 5) [028D7172], AccurateRip returned [8FD59F4C]
No tracks could be verified as accurate
You may have a different pressing from the one(s) in the database
End of status report
CD2

скрытый текст

Exact Audio Copy V0.99 prebeta 4 from 23. January 2008
EAC extraction logfile from 5. September 2012, 15:34
Franзois Couperin / Les Nations CD2
Used drive : SONY DVD-ROM DDU1615 Adapter: 0 ID: 0
Read mode : Secure
Utilize accurate stream : Yes
Defeat audio cache : Yes
Make use of C2 pointers : No
Read offset correction : 6
Overread into Lead-In and Lead-Out : No
Fill up missing offset samples with silence : Yes
Delete leading and trailing silent blocks : No
Null samples used in CRC calculations : Yes
Used interface : Native Win32 interface for Win NT & 2000
Used output format : User Defined Encoder
Selected bitrate : 1024 kBit/s
Quality : High
Add ID3 tag : No
Command line compressor : C:\Program Files\REACT\REACT.exe
Additional command line options : REACT %o %s %d "%a" "%g" "%t" "%n" "%x" "%y" "%m" "%e" "%f" "%b" %r
TOC of the extracted CD
Track | Start | Length | Start sector | End sector
---------------------------------------------------------
1 | 0:00.33 | 9:49.50 | 33 | 44257
2 | 9:50.08 | 2:21.50 | 44258 | 54882
3 | 12:11.58 | 1:26.50 | 54883 | 61382
4 | 13:38.33 | 1:31.25 | 61383 | 68232
5 | 15:09.58 | 2:16.50 | 68233 | 78482
6 | 17:26.33 | 1:01.30 | 78483 | 83087
7 | 18:27.63 | 1:10.65 | 83088 | 88402
8 | 19:38.53 | 2:07.65 | 88403 | 97992
9 | 21:46.43 | 4:31.67 | 97993 | 118384
10 | 26:18.35 | 1:07.73 | 118385 | 123482
11 | 27:26.33 | 8:16.62 | 123483 | 160744
12 | 35:43.20 | 2:37.38 | 160745 | 172557
13 | 38:20.58 | 1:24.25 | 172558 | 178882
14 | 39:45.08 | 1:50.65 | 178883 | 187197
15 | 41:35.73 | 2:31.40 | 187198 | 198562
16 | 44:07.38 | 2:02.30 | 198563 | 207742
17 | 46:09.68 | 1:56.65 | 207743 | 216507
Range status and errors
Selected range
Filename C:\EAC-CD Extraction\Ludovico da Viadana\Franзois Couperin - Les Nations CD2.wav
Peak level 68.0 %
Range quality 99.9 %
Copy CRC D423EB22
Copy OK
No errors occurred
AccurateRip summary
Track 1 cannot be verified as accurate (confidence 5) [37AFB4C3], AccurateRip returned [83735852]
Track 2 cannot be verified as accurate (confidence 5) [316FA42A], AccurateRip returned [F55946F1]
Track 3 cannot be verified as accurate (confidence 5) [C3A1EE01], AccurateRip returned [8C200FCC]
Track 4 cannot be verified as accurate (confidence 5) [0B597D9A], AccurateRip returned [C1FD9E16]
Track 5 cannot be verified as accurate (confidence 5) [401120D4], AccurateRip returned [523FFB15]
Track 6 cannot be verified as accurate (confidence 5) [51E587B2], AccurateRip returned [37F61653]
Track 7 cannot be verified as accurate (confidence 5) [C1B6C06B], AccurateRip returned [E8ACB20F]
Track 8 cannot be verified as accurate (confidence 5) [6535C49E], AccurateRip returned [DCE50420]
Track 9 cannot be verified as accurate (confidence 5) [7AB9117A], AccurateRip returned [4A8B6454]
Track 10 cannot be verified as accurate (confidence 5) [759DE0E9], AccurateRip returned [05479B6A]
Track 11 cannot be verified as accurate (confidence 5) [C529DD3E], AccurateRip returned [A9CBEEF8]
Track 12 cannot be verified as accurate (confidence 5) [94B36280], AccurateRip returned [CBEEB13B]
Track 13 cannot be verified as accurate (confidence 5) [B8BAA09E], AccurateRip returned [C085F557]
Track 14 cannot be verified as accurate (confidence 5) [721296B2], AccurateRip returned [C67302EE]
Track 15 cannot be verified as accurate (confidence 5) [26408B97], AccurateRip returned [17E25235]
Track 16 cannot be verified as accurate (confidence 5) [1CEBA889], AccurateRip returned [80A0E4AF]
Track 17 cannot be verified as accurate (confidence 5) [3063685E], AccurateRip returned [4C774119]
No tracks could be verified as accurate
You may have a different pressing from the one(s) in the database
End of status report



Показать сообщения:    

Текущее время: 11-Дек 16:48

Часовой пояс: UTC + 3


Вы не можете начинать темы
Вы не можете отвечать на сообщения
Вы не можете редактировать свои сообщения
Вы не можете удалять свои сообщения
Вы не можете голосовать в опросах
Вы не можете прикреплять файлы к сообщениям
Вы не можете скачивать файлы