(Classical) Дмитрий Шостакович - Симфонии №№ 1, 15 - Netherlands Radio Philharmonic Orchestra, Mark Wigglesworth - 2014, FLAC (image+.cue) lossless


 

[Цитировать]

Дмитрий Шостакович - Симфонии №№ 1, 15 - Netherlands Radio Philharmonic Orchestra, Mark Wigglesworth
Жанр: Classical
Страна-производитель диска: Sweden
Год издания диска: 2014
Издатель (лейбл): BIS
Номер по каталогу: BIS-SACD-1643
Дата записи: 2006
Аудиокодек: FLAC
Тип рипа: image+.cue
Битрейт аудио: lossless
Продолжительность: 79:15
Источник: собственный рип
Наличие сканов в содержимом раздачи: да
Треклист:
Дмитрий Дмитриевич Шостакович (1906-1975)
[1]-[4] Симфония №1 фа минор, Op. 10 (1924-25)
[5]-[8] Симфония №15 ля мажор, Op. 141 (1971)
Исполнители:
Netherlands Radio Philharmonic Orchestra
Mark Wigglesworth

Лог создания рипа

Exact Audio Copy V1.0 beta 3 from 29. August 2011
EAC extraction logfile from 4. January 2015, 16:27
Netherlands Radio Philharmonic Orchestra, Mark Wigglesworth / Shostakovich - Symphonies Nos. 1 & 15
Used drive : HL-DT-STDVDRAM GU70N Adapter: 0 ID: 0
Read mode : SecureUtilize accurate stream : YesDefeat audio cache : YesMake use of C2 pointers : No
Read offset correction : 48Overread into Lead-In and Lead-Out : NoFill up missing offset samples with silence : YesDelete leading and trailing silent blocks : NoNull samples used in CRC calculations : YesUsed interface : Native Win32 interface for Win NT & 2000
Used output format : User Defined EncoderSelected bitrate : 128 kBit/sQuality : HighAdd ID3 tag : NoCommand line compressor : C:\Program Files (x86)\Exact Audio Copy\Flac\flac.exeAdditional command line options : -V -8 -T "Date=%year%" -T "Genre=%genre%" %source%
TOC of the extracted CD
Track | Start | Length | Start sector | End sector --------------------------------------------------------- 1 | 0:00.00 | 8:42.02 | 0 | 39151 2 | 8:42.02 | 5:11.64 | 39152 | 62540 3 | 13:53.66 | 8:30.64 | 62541 | 100854 4 | 22:24.55 | 10:02.49 | 100855 | 146053 5 | 32:27.29 | 9:05.08 | 146054 | 186936 6 | 41:32.37 | 15:44.72 | 186937 | 257808 7 | 57:17.34 | 4:36.64 | 257809 | 278572 8 | 61:54.23 | 17:21.42 | 278573 | 356689
Range status and errors
Selected range
Filename C:\temp\BIS-SACD-1643 - Shostakovich - Symphonies Nos. 1 & 15\Shostakovich - Symphonies Nos. 1 & 15.wav
Peak level 99.8 % Extraction speed 2.3 X Range quality 99.9 % Test CRC B9D69685 Copy CRC B9D69685 Copy OK
No errors occurred
AccurateRip summary
Track 1 accurately ripped (confidence 1) [A4CDB3B5] (AR v2)Track 2 accurately ripped (confidence 1) [8CC44353] (AR v2)Track 3 accurately ripped (confidence 1) [AF4C6610] (AR v2)Track 4 accurately ripped (confidence 1) [16C6F771] (AR v2)Track 5 accurately ripped (confidence 1) [A00C1AA1] (AR v2)Track 6 accurately ripped (confidence 1) [F07B1B41] (AR v2)Track 7 accurately ripped (confidence 1) [19072ED9] (AR v2)Track 8 accurately ripped (confidence 1) [7FA49F10] (AR v2)
All tracks accurately ripped
End of status report
==== Log checksum 79759AFE2CCA466F8A084D67BAECC4F6278A014F9F68CA2FB35DEE42B31FDE8E ====



Показать сообщения:    

Текущее время: 09-Дек 16:32

Часовой пояс: UTC + 3


Вы не можете начинать темы
Вы не можете отвечать на сообщения
Вы не можете редактировать свои сообщения
Вы не можете удалять свои сообщения
Вы не можете голосовать в опросах
Вы не можете прикреплять файлы к сообщениям
Вы не можете скачивать файлы