(Classical) Карл Нильсен / Carl Nielsen - Symphonies Nos. 4 & 5 - Royal Stockholm Philharmonic Orchestra, Sakari Oramo - 2013, FLAC (image+.cue) lossless


 

[Цитировать]

Carl Nielsen - Symphonies Nos. 4 & 5 - Royal Stockholm Philharmonic Orchestra, Sakari Oramo
Жанр: Classical
Страна-производитель диска: Sweden
Год издания диска: 2013
Издатель (лейбл): BIS
Номер по каталогу: BIS-SACD-2028
Дата записи: 2012, 2013
Аудиокодек: FLAC
Тип рипа: image+.cue
Битрейт аудио: lossless
Продолжительность: 69:46
Источник: собственный рип
Наличие сканов в содержимом раздачи: да
Треклист:
Carl Nielsen (1865–1931)
[1]-[4] Symphony No. 4 ‘The Inextinguishable’, Op. 29
[5]-[6] Symphony No. 5, Op. 50
Исполнители:
Royal Stockholm Philharmonic Orchestra
Sakari Oramo
conductor

Лог создания рипа

Exact Audio Copy V1.0 beta 3 from 29. August 2011
EAC extraction logfile from 4. January 2015, 2:57
Royal Stockholm Philharmonic Orchestra, Sakari Oramo / Nielsen - Symphonies Nos. 4 & 5
Used drive : HL-DT-STDVDRAM GU70N Adapter: 0 ID: 0
Read mode : SecureUtilize accurate stream : YesDefeat audio cache : YesMake use of C2 pointers : No
Read offset correction : 48Overread into Lead-In and Lead-Out : NoFill up missing offset samples with silence : YesDelete leading and trailing silent blocks : NoNull samples used in CRC calculations : YesUsed interface : Native Win32 interface for Win NT & 2000
Used output format : User Defined EncoderSelected bitrate : 128 kBit/sQuality : HighAdd ID3 tag : NoCommand line compressor : C:\Program Files (x86)\Exact Audio Copy\Flac\flac.exeAdditional command line options : -V -8 -T "Date=%year%" -T "Genre=%genre%" %source%
TOC of the extracted CD
Track | Start | Length | Start sector | End sector --------------------------------------------------------- 1 | 0:00.00 | 11:37.18 | 0 | 52292 2 | 11:37.18 | 5:22.47 | 52293 | 76489 3 | 16:59.65 | 9:39.28 | 76490 | 119942 4 | 26:39.18 | 8:47.66 | 119943 | 159533 5 | 35:27.09 | 18:00.66 | 159534 | 240599 6 | 53:28.00 | 16:18.68 | 240600 | 314017
Range status and errors
Selected range
Filename C:\temp\BIS-SACD-2028 - Nielsen - Symphonies Nos. 4 & 5\Nielsen - Symphonies Nos. 4 & 5.wav
Peak level 97.7 % Extraction speed 2.3 X Range quality 100.0 % Test CRC CD0DFBD5 Copy CRC CD0DFBD5 Copy OK
No errors occurred
AccurateRip summary
Track 1 accurately ripped (confidence 2) [A802C65B] (AR v2)Track 2 accurately ripped (confidence 2) [BE15C260] (AR v2)Track 3 accurately ripped (confidence 2) [790BF67B] (AR v2)Track 4 accurately ripped (confidence 2) [FFA973A9] (AR v2)Track 5 accurately ripped (confidence 2) [3D03464B] (AR v2)Track 6 accurately ripped (confidence 2) [B93399D9] (AR v2)
All tracks accurately ripped
End of status report
==== Log checksum 4633F6BE95BE3CDDC9286C452097F4D4A903DE444EC66AEBE995C92787E0581E ====



Показать сообщения:    

Текущее время: 08-Дек 19:12

Часовой пояс: UTC + 3


Вы не можете начинать темы
Вы не можете отвечать на сообщения
Вы не можете редактировать свои сообщения
Вы не можете удалять свои сообщения
Вы не можете голосовать в опросах
Вы не можете прикреплять файлы к сообщениям
Вы не можете скачивать файлы