(Classical) Фридрих Брук (Fridrich Bruk) - Symphony No.12 \'Turtola\'s Star\'; To the Home Neighbourhood - The Lithuanian State Symphony Orchestra, Imants Resnis, The Latvian State Academic Choir, Maris Sirmais - 2012, FLAC (image+.cue) lossless


 

[Цитировать]

Фридрих Брук (Fridrich Bruk) - Symphony No.12 'Turtola's Star'; To the Home Neighbourhood - The Lithuanian State Symphony Orchestra, Imants Resnis, The Latvian State Academic Choir, Māris Sirmais
Жанр: Classical
Страна-производитель диска: Finland
Год издания диска: 2012
Номер по каталогу: FBNBCD-15
Дата записи: 2005, 2012
Аудиокодек: FLAC
Тип рипа: image+.cue
Битрейт аудио: lossless
Продолжительность: 49:02
Источник: собственный рип
Наличие сканов в содержимом раздачи: да
Треклист:
Fridrich Bruk (1937)
[1]-[2] Symphony No.12 Turtola's Star (2011)
The Lithuanian State Symphony Orchestra
Imants Resnis

[3]-[5] To the Home Neighbourhood (1994)
Three songs for a mixed choir a cappella
The Latvian State Academic Choir
Māris Sirmais

Фридрих Брук родился в 1937 году в Харькове, в 1961 году закончил Ленинградскую консерваторию по классу композиции. С 1974 года живет в Финляндии.
Исполнители:
The Lithuanian State Symphony Orchestra
Imants Resnis
The Latvian State Academic Choir
Māris Sirmais

Лог создания рипа

Exact Audio Copy V1.0 beta 3 from 29. August 2011
EAC extraction logfile from 3. October 2014, 8:41
The Lithuanian State SO, Imants Resnis / Bruk - Turtola's Star
Used drive : HL-DT-STDVDRAM GU70N Adapter: 0 ID: 0
Read mode : SecureUtilize accurate stream : YesDefeat audio cache : YesMake use of C2 pointers : No
Read offset correction : 48Overread into Lead-In and Lead-Out : NoFill up missing offset samples with silence : YesDelete leading and trailing silent blocks : NoNull samples used in CRC calculations : YesUsed interface : Native Win32 interface for Win NT & 2000
Used output format : User Defined EncoderSelected bitrate : 128 kBit/sQuality : HighAdd ID3 tag : NoCommand line compressor : C:\Program Files (x86)\Exact Audio Copy\Flac\flac.exeAdditional command line options : -V -8 -T "Date=%year%" -T "Genre=%genre%" %source%
TOC of the extracted CD
Track | Start | Length | Start sector | End sector --------------------------------------------------------- 1 | 0:00.00 | 17:34.69 | 0 | 79118 2 | 17:34.69 | 16:10.48 | 79119 | 151916 3 | 33:45.42 | 4:16.73 | 151917 | 171189 4 | 38:02.40 | 2:52.06 | 171190 | 184095 5 | 40:54.46 | 8:07.43 | 184096 | 220663
Range status and errors
Selected range
Filename C:\temp\Bruk - Turtola's Star\Bruk - Turtola's Star.wav
Peak level 100.0 % Extraction speed 2.0 X Range quality 99.9 % Test CRC 4412FA62 Copy CRC 4412FA62 Copy OK
No errors occurred
AccurateRip summary
Track 1 not present in databaseTrack 2 not present in databaseTrack 3 not present in databaseTrack 4 not present in databaseTrack 5 not present in database
None of the tracks are present in the AccurateRip database
End of status report
==== Log checksum 95924C5553882EF6AA7FE022C75BC82AFECE2D2761A6A1181AF72A1CB86C0129 ====



Показать сообщения:    

Текущее время: 09-Дек 20:30

Часовой пояс: UTC + 3


Вы не можете начинать темы
Вы не можете отвечать на сообщения
Вы не можете редактировать свои сообщения
Вы не можете удалять свои сообщения
Вы не можете голосовать в опросах
Вы не можете прикреплять файлы к сообщениям
Вы не можете скачивать файлы