(Ballet suite) П.И.Чайковский - Балетные сюиты: »Щелкунчик« | »Спящая красавица« | »Лебединое озеро« (Orchestre National de France - К.Кондрашин) - 2004, FLAC (image+.cue) lossless


 

[Цитировать]

Tchaikovsky - Ballet Suites
The Nutcracker Suite, op.71a
The Sleeping Beauty Suite, op.66a
Swan Lake Suite, op.20
-
-
-
-
- Жанр: Ballet suite
Страна-производитель диска: UK
Год издания диска: 2004
Издатель (лейбл): IMP
Дата записи: 04.1980
Аудиокодек: FLAC
Тип рипа: image+.cue
Битрейт аудио: lossless
Продолжительность: 65'13''
Источник: собственный рип
Наличие сканов в содержимом раздачи: да
Треклист:
[01] »Щелкунчик«: Увертюра
[02] Марш
[03] Танец Фей Драже
[04] Русский танец
[05] Арабский танец
[06] Китайский танец
[07] Танец пастушков
[08] Вальс цветов
[09] »Спящая красавица«: Интродукция - Фея сирени
[10] Pas d'action
[11] Pas de caractere
[12] Вальс
[13] Апофеоз
[14] »Лебединое озеро«: Сцена (Картина I)
[15] Вальс (Картина I)
[16] Танец лебедей (Картина II)
[17] Сцена (Картина II)
[18] Сцена (Картина II)
[19] Венгерский танец
Исполнители:
Orchestre National de France - Кирилл Кондрашин-

Лог создания рипа

Exact Audio Copy V1.0 beta 3 from 29. August 2011
EAC extraction logfile from 11. December 2014, 21:53
Orchestre National de France - Kirill Kondrashin / Tchaikovsky - Ballet suites
Used drive : HL-DT-STDVD+-RW GU90N Adapter: 0 ID: 0
Read mode : SecureUtilize accurate stream : YesDefeat audio cache : YesMake use of C2 pointers : No
Read offset correction : 102Overread into Lead-In and Lead-Out : NoFill up missing offset samples with silence : YesDelete leading and trailing silent blocks : NoNull samples used in CRC calculations : YesUsed interface : Native Win32 interface for Win NT & 2000
Used output format : User Defined EncoderSelected bitrate : 1024 kBit/sQuality : HighAdd ID3 tag : NoCommand line compressor : C:\Program Files (x86)\FLAC\flac.exeAdditional command line options : -T "COMMENT=rip by el coronel" -8 -V %source%
TOC of the extracted CD
Track | Start | Length | Start sector | End sector --------------------------------------------------------- 1 | 0:00.33 | 3:05.72 | 33 | 13979 2 | 3:06.30 | 2:30.70 | 13980 | 25299 3 | 5:37.25 | 1:44.05 | 25300 | 33104 4 | 7:21.30 | 1:03.68 | 33105 | 37897 5 | 8:25.23 | 2:51.72 | 37898 | 50794 6 | 11:17.20 | 1:12.00 | 50795 | 56194 7 | 12:29.20 | 2:00.03 | 56195 | 65197 8 | 14:29.23 | 7:14.55 | 65198 | 97802 9 | 21:44.03 | 3:32.47 | 97803 | 113749 10 | 25:16.50 | 5:23.48 | 113750 | 138022 11 | 30:40.23 | 2:34.30 | 138023 | 149602 12 | 33:14.53 | 4:24.10 | 149603 | 169412 13 | 37:38.63 | 2:08.67 | 169413 | 179079 14 | 39:47.55 | 2:43.28 | 179080 | 191332 15 | 42:31.08 | 6:44.50 | 191333 | 221682 16 | 49:15.58 | 1:43.02 | 221683 | 229409 17 | 50:58.60 | 6:21.25 | 229410 | 258009 18 | 57:20.10 | 4:37.50 | 258010 | 278834 19 | 61:57.60 | 3:15.28 | 278835 | 293487
Range status and errors
Selected range
Filename F:\Music\Tchaikovsky - Ballet suites - Kondrashin (ONdF)\CD.wav
Peak level 99.9 % Extraction speed 5.0 X Range quality 100.0 % Test CRC 99AA6B23 Copy CRC 99AA6B23 Copy OK
No errors occurred
AccurateRip summary
Track 1 not present in databaseTrack 2 not present in databaseTrack 3 not present in databaseTrack 4 not present in databaseTrack 5 not present in databaseTrack 6 not present in databaseTrack 7 not present in databaseTrack 8 not present in databaseTrack 9 not present in databaseTrack 10 not present in databaseTrack 11 not present in databaseTrack 12 not present in databaseTrack 13 not present in databaseTrack 14 not present in databaseTrack 15 not present in databaseTrack 16 not present in databaseTrack 17 not present in databaseTrack 18 not present in databaseTrack 19 not present in database
None of the tracks are present in the AccurateRip database
End of status report
==== Log checksum 68194E3CC6DAFB492B1918EAC24B4102E43987B47E752603F7CEA2D6EDD9D544 ====

Содержание индексной карты (.CUE)

REM GENRE ClassicalREM DATE 1994REM DISCID 1E0F4913REM COMMENT "ExactAudioCopy v1.0b3"PERFORMER "Orchestre National de France - Kirill Kondrashin"TITLE "Tchaikovsky - Ballet suites"FILE "CD.flac" WAVE TRACK 01 AUDIO TITLE "'The Nutcracker': Miniature ouverture" PERFORMER "Orchestre National de France - Kirill Kondrashin" INDEX 00 00:00:00 INDEX 01 00:00:33 TRACK 02 AUDIO TITLE "March" PERFORMER "Orchestre National de France - Kirill Kondrashin" INDEX 00 03:05:13 INDEX 01 03:06:30 TRACK 03 AUDIO TITLE "Dance of the Sugar Plum Fairy" PERFORMER "Orchestre National de France - Kirill Kondrashin" INDEX 00 05:36:30 INDEX 01 05:37:25 TRACK 04 AUDIO TITLE "Russian dance" PERFORMER "Orchestre National de France - Kirill Kondrashin" INDEX 00 07:20:25 INDEX 01 07:21:30 TRACK 05 AUDIO TITLE "Arabian Dance" PERFORMER "Orchestre National de France - Kirill Kondrashin" INDEX 00 08:24:45 INDEX 01 08:25:23 TRACK 06 AUDIO TITLE "Chinese Dance" PERFORMER "Orchestre National de France - Kirill Kondrashin" INDEX 00 11:15:70 INDEX 01 11:17:20 TRACK 07 AUDIO TITLE "Dance of the Reed-Pipes" PERFORMER "Orchestre National de France - Kirill Kondrashin" INDEX 00 12:28:13 INDEX 01 12:29:20 TRACK 08 AUDIO TITLE "Waltz of the Flowers" PERFORMER "Orchestre National de France - Kirill Kondrashin" INDEX 00 14:28:38 INDEX 01 14:29:23 TRACK 09 AUDIO TITLE "'The Sleeping Beauty': Introduction - The Lilac fairy" PERFORMER "Orchestre National de France - Kirill Kondrashin" INDEX 00 21:39:43 INDEX 01 21:44:03 TRACK 10 AUDIO TITLE "Pas d'action" PERFORMER "Orchestre National de France - Kirill Kondrashin" INDEX 00 25:14:25 INDEX 01 25:16:50 TRACK 11 AUDIO TITLE "Pas de caractere" PERFORMER "Orchestre National de France - Kirill Kondrashin" INDEX 00 30:39:40 INDEX 01 30:40:23 TRACK 12 AUDIO TITLE "Waltz" PERFORMER "Orchestre National de France - Kirill Kondrashin" INDEX 00 33:13:13 INDEX 01 33:14:53 TRACK 13 AUDIO TITLE "Apotheosis" PERFORMER "Orchestre National de France - Kirill Kondrashin" INDEX 00 37:38:13 INDEX 01 37:38:63 TRACK 14 AUDIO TITLE "'Swan Lake': Scene (Act I)" PERFORMER "Orchestre National de France - Kirill Kondrashin" INDEX 00 39:40:63 INDEX 01 39:47:55 TRACK 15 AUDIO TITLE "Waltz (Act I)" PERFORMER "Orchestre National de France - Kirill Kondrashin" INDEX 00 42:30:03 INDEX 01 42:31:08 TRACK 16 AUDIO TITLE "dance of the Swans (Act II)" PERFORMER "Orchestre National de France - Kirill Kondrashin" INDEX 00 49:13:48 INDEX 01 49:15:58 TRACK 17 AUDIO TITLE "Scene (Act II)" PERFORMER "Orchestre National de France - Kirill Kondrashin" INDEX 00 50:57:68 INDEX 01 50:58:60 TRACK 18 AUDIO TITLE "Scene (Act II)" PERFORMER "Orchestre National de France - Kirill Kondrashin" INDEX 00 57:17:38 INDEX 01 57:20:10 TRACK 19 AUDIO TITLE "Hungarian Dance" PERFORMER "Orchestre National de France - Kirill Kondrashin" INDEX 00 61:54:63 INDEX 01 61:57:60
-



Показать сообщения:    

Текущее время: 10-Дек 04:09

Часовой пояс: UTC + 3


Вы не можете начинать темы
Вы не можете отвечать на сообщения
Вы не можете редактировать свои сообщения
Вы не можете удалять свои сообщения
Вы не можете голосовать в опросах
Вы не можете прикреплять файлы к сообщениям
Вы не можете скачивать файлы