(Baroque) Pachelbel - Canon & Gigue, Vivaldi - Sinfonia in G, Albinoni - Concerto a cinque in D minor, Handel- Solomon, Purcell - Chacony, Avison - Concerto grosso No.9, Haydn - Concerto in D major (Pinnock) - 1985, FLAC (image+.cue) lossless


 

[Цитировать]

Johann Pachelbel - Canon & Gigue etc
The English Concert, Trevor Pinnock
Жанр: Baroque
Страна-производитель диска: Germany
Год издания диска: 1985
Издатель (лейбл): Archiv Produktion
Номер по каталогу: 415 518-2
Дата записи: 1985
Аудиокодек: FLAC
Тип рипа: image+.cue
Битрейт аудио: lossless
Продолжительность: 1:04:51
Источник: скачано с odeonmusic
Наличие сканов в содержимом раздачи: да
Треклист:
Johann Pachelbel - Canon and Gigue in D major, for 3 violins and basso continuo
1 1. Canon 4:29
2 2. Gigue 1:24
Antonio Vivaldi - Sinfonia in G major, RV 149
3 1. Allegro molto 1:49
4 2. Andante 1:46
5 3. Allegro 2:31
Tomaso Albinoni - Concerto a cinque in D minor, for solo oboe and strings, Op. 9 No. 2
6 1. Allegro e non presto 4:27
7 2. Adagio 4:00
8 3. Allegro 3:02
Henry Purcell - Chacony in G minor
9 Chacony in G minor 5:22
George Handel - Solomon
10 The Arrival of the Queen of Sheba 3:10
Charles Avison - Concerto grosso No. 9 in C major/A minor (after D. Scarlatti)
11 Largo 2:09
12 Con spirito - Andante - Con spirito 3:10
13 Siciliana 3:17
14 Allegro 3:45
Joseph Haydn - Concerto in D major, for harpsichord and orchestra, Hob. 18:11
15 1. Vivace 8:00
16 2. Un poco Adagio 7:46
17 3. Rondo all'Ungarese. Allegro assai 4:34
Исполнители:
The English Concert
Trevor Pinnock - conductor, harpsichord

Лог создания рипа

Exact Audio Copy V1.0 beta 3 from 29. August 2011
EAC extraction logfile from 6. February 2012, 17:26
The English Concert / Pachelbel - Canon & Gigue - Pinnock
Used drive : HL-DT-STDVDRAM GSA-H10A Adapter: 0 ID: 0
Read mode : SecureUtilize accurate stream : YesDefeat audio cache : YesMake use of C2 pointers : No
Read offset correction : 667Overread into Lead-In and Lead-Out : NoFill up missing offset samples with silence : YesDelete leading and trailing silent blocks : NoNull samples used in CRC calculations : YesUsed interface : Native Win32 interface for Win NT & 2000
Used output format : User Defined EncoderSelected bitrate : 1024 kBit/sQuality : HighAdd ID3 tag : NoCommand line compressor : C:\Program Files\Exact Audio Copy\Flac\flac.exeAdditional command line options : -8 -V -T "TITLE=%title%" -T "ARTIST=%artist%" -T "ALBUMARTIST=%albumartist%" -T "ALBUM=%albumtitle%" -T "DATE=%year%" -T "TRACKNUMBER=%tracknr%" -T "TRACKTOTAL=%numtracks%" -T "GENRE=%genre%" -T "COMMENT=%comment%" -T "PERFORMER=%albuminterpret%" -T "COMPOSER=%composer%" %source% -o %dest%
TOC of the extracted CD
Track | Start | Length | Start sector | End sector --------------------------------------------------------- 1 | 0:00.32 | 4:29.63 | 32 | 20269 2 | 4:30.20 | 1:24.25 | 20270 | 26594 3 | 5:54.45 | 1:50.00 | 26595 | 34844 4 | 7:44.45 | 1:46.62 | 34845 | 42856 5 | 9:31.32 | 2:32.00 | 42857 | 54256 6 | 12:03.32 | 4:27.63 | 54257 | 74344 7 | 16:31.20 | 4:00.50 | 74345 | 92394 8 | 20:31.70 | 3:02.37 | 92395 | 106081 9 | 23:34.32 | 5:22.13 | 106082 | 130244 10 | 28:56.45 | 3:10.50 | 130245 | 144544 11 | 32:07.20 | 2:09.50 | 144545 | 154269 12 | 34:16.70 | 3:10.25 | 154270 | 168544 13 | 37:27.20 | 3:18.00 | 168545 | 183394 14 | 40:45.20 | 3:45.37 | 183395 | 200306 15 | 44:30.57 | 8:00.38 | 200307 | 236344 16 | 52:31.20 | 7:46.50 | 236345 | 271344 17 | 60:17.70 | 4:34.25 | 271345 | 291919
Range status and errors
Selected range
Filename F:\Ripped general\[0230] Pachelbel - Canon & Gigue; Handel, Haydn - Pinnock\The English Concert - Pachelbel - Canon & Gigue - Pinnock.wav
Peak level 91.8 % Extraction speed 7.4 X Range quality 100.0 % Test CRC 9F8D1856 Copy CRC 9F8D1856 Copy OK
No errors occurred
AccurateRip summary
Track 1 accurately ripped (confidence 7) [4C748227] (AR v2)Track 2 accurately ripped (confidence 7) [D1BE7B2B] (AR v2)Track 3 accurately ripped (confidence 7) [6E16E2E3] (AR v2)Track 4 accurately ripped (confidence 7) [F631FD08] (AR v2)Track 5 accurately ripped (confidence 7) [45B2C4D0] (AR v2)Track 6 accurately ripped (confidence 7) [3F4C8F32] (AR v2)Track 7 accurately ripped (confidence 7) [D6D95ADC] (AR v2)Track 8 accurately ripped (confidence 3) [2CEF0979] (AR v2)Track 9 accurately ripped (confidence 3) [A0C55E42] (AR v2)Track 10 accurately ripped (confidence 7) [2FA7959C] (AR v2)Track 11 accurately ripped (confidence 7) [A2E7E5EC] (AR v2)Track 12 accurately ripped (confidence 7) [0D4D09F8] (AR v2)Track 13 accurately ripped (confidence 7) [E43DC934] (AR v2)Track 14 accurately ripped (confidence 7) [4B92EAC7] (AR v2)Track 15 accurately ripped (confidence 7) [1CDF7E54] (AR v2)Track 16 accurately ripped (confidence 7) [CF64225E] (AR v2)Track 17 accurately ripped (confidence 7) [8FF49A55] (AR v2)
All tracks accurately ripped
End of status report

Лог проверки качества

AUDIOCHECKER v2.0 beta (build 457) - by Dester - opdester@freemail.hu~~~~~~~~~~~~~~~~~~~~~~~~~~~~~~~~~~-=== DO NOT EDIT THIS FILE! ===-
Path: ...\Pachelbel - Canon & Gigue etc (Pinnock)
1 -=- The English Concert - Pachelbel - Canon & Gigue - Pinnock.flac -=- CDDA (100%)
86291028



Показать сообщения:    

Текущее время: 03-Дек 03:22

Часовой пояс: UTC + 3


Вы не можете начинать темы
Вы не можете отвечать на сообщения
Вы не можете редактировать свои сообщения
Вы не можете удалять свои сообщения
Вы не можете голосовать в опросах
Вы не можете прикреплять файлы к сообщениям
Вы не можете скачивать файлы