(Classical) Ludwig van Beethoven - Symphonies 1-8 (Rudolf Barschai (Barshai) / Рудольф Баршай) 5 CD - 2014, FLAC (tracks+.cue) lossless


 

[Цитировать]

Ludwig van Beethoven - Symphonies 1-8 (Rudolf Barschai) / Людвиг ван Бетховен - Симфонии 1-8 (дирижер Рудольф Баршай) 5 CD
Жанр: Classical
Страна-производитель диска: Россия
Год издания диска: 2014
Издатель (лейбл): Мелодия
Номер по каталогу: MEL CD 10 02228
Дата записи: 1969-1975
Аудиокодек: FLAC
Тип рипа: tracks+.cue
Битрейт аудио: lossless
Продолжительность: 5:06:18 (1:04:20 + 54:41 + 1:10:15 + 42:57 + 1:14:05)
Источник: собственный рип
Наличие сканов в содержимом раздачи: да
Треклист:

CD01 – Symphonies Nos. 1 and 2

Диск 1
Симфония № 1 До мажор, соч. 21
1 I. Adagio molto. Allegro con brio 9.29
2 II. Andante cantabile con moto 8.41
3 III. Menuetto. Allegro molto e vivace . . 4.05
4 IV. Adagio. Allegro molto e vivace. . . .5.59
Симфония № 2 Ре мажор, соч. 36
5 I. Adagio molto. Allegro con brio. . . . 12.39
6 II. Larghetto 13.40
7 III. Scherzo. Allegro 3.26
8 IV. Allegro molto 6.17
Общее время звучания 64.20
Симфонический оркестр
Дирижер - Рудольф Баршай
Запись 1969 г.
Звукорежиссер-А. Гроссман

CD02 – Symphony No. 3, ‘Eroica’

Диск 2
Симфония № 3 Ми-бемоль мажор, соч. 55, «Героическая»
1 I. Allegro con brio 19.01
2 II. Marcia funebre. Adagio assai .... 17.36
3 III. Scherzo. Allegro vivace 6.12
4 IV. Finale. Allegro molto 11.50
Общее время звучания 54.41
Объединенный симфонический оркестр
Дирижер - Рудольф Баршай
Запись 1972 г.
Звукорежиссер В. Антоненко

CD03 – Symphonies Nos. 4 and 5

Диск 3
Симфония № 4 Си-бемоль мажор, соч. 60
1 I. Adagio. Allegro vivace 11.18
2 II. Adagio 9.26
3 III. Menuetto. Allegro vivace - Trio. Un poco meno allegro 5.45
4 IV. Allegro ma non troppo 6.51
Симфония № 5 до минор, соч. 67
5 I. Allegro con brio 7.52
6 II. Andante con moto 11.03
7 III. Allegro 5.58
8 IV. Allegro - Presto 11.59
Общее время звучания 70.15
Симфонический оркестр
Дирижер - Рудольф Баршай
Записи: 1971 (1—4), 1973 (5-8) гг.
Звукорежиссеры: А. Гроссман ( 1-4), В. Антоненко (5-8)

CD04 – Symphony No. 6, ‘Pastoral’

Диск 4
Симфония № 6 Фа мажор, соч. 68, «Пасторальная»
1 1. «Пробуждение радостных чувств по прибытии в деревню» 12.36
Allegro ma non troppo
2 II. «Сцена у ручья» 12.18
Andante molto mosso
3 III. «Веселое сборище крестьян» 5.15
Allegro
4 IV. «Гроза, буря» 3.34
Allegro
5 V. «Песня пастуха. Радостные и благодатные чувства после бури». 9.12
Allegretto
Общее время звучания 42.57
Симфонический оркестр
Дирижер - Рудольф Баршай
Запись 1971 г.
Звукорежиссер - А. Гроссман

CD05 – Symphonies 7 and 8

Диск 5
Симфония № 7 Ля мажор, соч. 92
1 I. Росо sostenuto. Vivace 17.06
2 II. Allegretto 10.04
3 III. Presto - Trio. Assai meno presto . . 10.25
4 IV. Allegro con brio 8.44
Симфония № 8 Фа мажор, соч. 93
5 I. Allegro vivace е con brio 9.49
6 II. Allegretto scherzando 4.21
7 III. Tempo di Menuetto 5.30
8 IV. Allegro vivace 8.03
Общее время звучания 74.05
Симфонический оркестр
Дирижер - Рудольф Баршай
Записи: 1973(1-4), 1975 (5-8) гг.
Звукорежиссер - В. Антоненко
Знаменитые исполнения всех симфоний Бетховена, кроме Девятой, сборным оркестром под управлением Рудольфа Баршая. А почему нет Девятой? Про это рассказано в буклете.
Исполнители:
Conductor Rudolf Barschai / Дирижер Рудольф Баршай
Symphony Orchestra / Симфонический оркестр

Лог создания рипаCD01

Exact Audio Copy V1.0 beta 3 from 29. August 2011
Отчёт EAC об извлечении, выполненном 14. декабря 2014, 0:58
Ludwig van Beethoven / Rudolf Barschai / Symphony No. 1 in C major, Op. 21, No. 2 in D major, Op. 36
Дисковод: MATSHITABD-MLT UJ240ES Adapter: 2 ID: 0
Режим чтения : Достоверность
Использование точного потока : Да
Отключение кэша аудио : Да
Использование указателей C2 : Нет
Коррекция смещения при чтении : 103
Способность читать области Lead-in и Lead-out : Нет
Заполнение пропущенных сэмплов тишиной : Да
Удаление блоков с тишиной в начале и конце : Нет
При вычислениях CRC использовались нулевые сэмплы : Да
Интерфейс : Встроенный Win32-интерфейс для Win NT/2000
Обработка зазоров : Добавлено к предыдущему треку
Выходной формат : Пользовательский кодировщик
Выбранный битрейт : 1024 kBit/s
Качество : Высокий
Добавление ID3-тега : Нет
Утилита сжатия : C:\Program Files (x86)\Exact Audio Copy\Flac\flac.exe
Дополнительные параметры : -V -8 -T "Genre=%genre%" -T "Artist=%artist%" -T "Title=%title%" -T "Album=%albumtitle%" -T "Date=%year%" -T "Tracknumber=%tracknr%" -T "Comment=%comment%" %source%
TOC извлечённого CD
Трек | Старт | Длительность | Начальный сектор | Конечный сектор
---------------------------------------------------------------------
1 | 0:00.00 | 9:29.39 | 0 | 42713
2 | 9:29.39 | 8:41.50 | 42714 | 81838
3 | 18:11.14 | 4:05.29 | 81839 | 100242
4 | 22:16.43 | 5:59.72 | 100243 | 127239
5 | 28:16.40 | 12:39.00 | 127240 | 184164
6 | 40:55.40 | 13:40.44 | 184165 | 245708
7 | 54:36.09 | 3:26.56 | 245709 | 261214
8 | 58:02.65 | 6:17.34 | 261215 | 289523
Трек 1
Имя файла C:\Users\Nornore\Documents\EAC rips\Barschai-Beethoven Symphonies\Barschai-Beethoven 01\01. Symphony No. 1 - I. Adagio molto. Allegro con brio.wav
Длина предзазора 0:00:02.00
Пиковый уровень 66.6 %
Скорость извлечения 3.0 X
Качество трека 100.0 %
CRC теста A335C67C
CRC копии A335C67C
Трек не обнаружен в базе AccurateRip
Копирование... OK
Трек 2
Имя файла C:\Users\Nornore\Documents\EAC rips\Barschai-Beethoven Symphonies\Barschai-Beethoven 01\02. Symphony No. 1 - II. Andante cantabile con moto.wav
Пиковый уровень 60.7 %
Скорость извлечения 3.6 X
Качество трека 100.0 %
CRC теста 40C59CC3
CRC копии 40C59CC3
Трек не обнаружен в базе AccurateRip
Копирование... OK
Трек 3
Имя файла C:\Users\Nornore\Documents\EAC rips\Barschai-Beethoven Symphonies\Barschai-Beethoven 01\03. Symphony No. 1 - III. Menuetto. Allegro molto e vivace.wav
Пиковый уровень 69.4 %
Скорость извлечения 3.6 X
Качество трека 100.0 %
CRC теста 86A1DF5E
CRC копии 86A1DF5E
Трек не обнаружен в базе AccurateRip
Копирование... OK
Трек 4
Имя файла C:\Users\Nornore\Documents\EAC rips\Barschai-Beethoven Symphonies\Barschai-Beethoven 01\04. Symphony No. 1 - IV. Adagio. Allegro molto e vivace.wav
Пиковый уровень 68.9 %
Скорость извлечения 4.0 X
Качество трека 100.0 %
CRC теста 8DBCDB31
CRC копии 8DBCDB31
Трек не обнаружен в базе AccurateRip
Копирование... OK
Трек 5
Имя файла C:\Users\Nornore\Documents\EAC rips\Barschai-Beethoven Symphonies\Barschai-Beethoven 01\05. Symphony No. 2 - I. Adagio molto. Allegro con brio.wav
Пиковый уровень 66.9 %
Скорость извлечения 4.7 X
Качество трека 100.0 %
CRC теста FF381393
CRC копии FF381393
Трек не обнаружен в базе AccurateRip
Копирование... OK
Трек 6
Имя файла C:\Users\Nornore\Documents\EAC rips\Barschai-Beethoven Symphonies\Barschai-Beethoven 01\06. Symphony No. 2 - II. Larghetto.wav
Пиковый уровень 65.0 %
Скорость извлечения 5.3 X
Качество трека 100.0 %
CRC теста 769E4013
CRC копии 769E4013
Трек не обнаружен в базе AccurateRip
Копирование... OK
Трек 7
Имя файла C:\Users\Nornore\Documents\EAC rips\Barschai-Beethoven Symphonies\Barschai-Beethoven 01\07. Symphony No. 2 - III. Scherzo. Allegro.wav
Пиковый уровень 65.2 %
Скорость извлечения 4.9 X
Качество трека 100.0 %
CRC теста 8E486EF2
CRC копии 8E486EF2
Трек не обнаружен в базе AccurateRip
Копирование... OK
Трек 8
Имя файла C:\Users\Nornore\Documents\EAC rips\Barschai-Beethoven Symphonies\Barschai-Beethoven 01\08. Symphony No. 2 - IV. Allegro molto.wav
Пиковый уровень 65.4 %
Скорость извлечения 5.4 X
Качество трека 100.0 %
CRC теста B4839D08
CRC копии B4839D08
Трек не обнаружен в базе AccurateRip
Копирование... OK
Ни одного трека нет в базе AccurateRip
Ошибок не произошло
Конец отчёта
==== Контрольная сумма отчёта EDF083CEA137F9B4E097F352A20957035107AD5800508DD9D9C49206C4300678 ====

CD02

Exact Audio Copy V1.0 beta 3 from 29. August 2011
Отчёт EAC об извлечении, выполненном 14. декабря 2014, 10:49
Ludwig van Beethoven / Rudolf Barschai / Symphony No. 3 in E flat major, Op. 55 (Eroica)
Дисковод: MATSHITABD-MLT UJ240ES Adapter: 2 ID: 0
Режим чтения : Достоверность
Использование точного потока : Да
Отключение кэша аудио : Да
Использование указателей C2 : Нет
Коррекция смещения при чтении : 103
Способность читать области Lead-in и Lead-out : Нет
Заполнение пропущенных сэмплов тишиной : Да
Удаление блоков с тишиной в начале и конце : Нет
При вычислениях CRC использовались нулевые сэмплы : Да
Интерфейс : Встроенный Win32-интерфейс для Win NT/2000
Обработка зазоров : Добавлено к предыдущему треку
Выходной формат : Пользовательский кодировщик
Выбранный битрейт : 1024 kBit/s
Качество : Высокий
Добавление ID3-тега : Нет
Утилита сжатия : C:\Program Files (x86)\Exact Audio Copy\Flac\flac.exe
Дополнительные параметры : -V -8 -T "Genre=%genre%" -T "Artist=%artist%" -T "Title=%title%" -T "Album=%albumtitle%" -T "Date=%year%" -T "Tracknumber=%tracknr%" -T "Comment=%comment%" %source%
TOC извлечённого CD
Трек | Старт | Длительность | Начальный сектор | Конечный сектор
---------------------------------------------------------------------
1 | 0:00.00 | 19:01.07 | 0 | 85581
2 | 19:01.07 | 17:36.70 | 85582 | 164851
3 | 36:38.02 | 6:12.50 | 164852 | 192801
4 | 42:50.52 | 11:50.52 | 192802 | 246103
Трек 1
Имя файла C:\Users\Nornore\Documents\EAC rips\Barschai-Beethoven Symphonies\Barschai-Beethoven 02\01. Symphony No. 3 - I. Allego con brio.wav
Длина предзазора 0:00:02.00
Пиковый уровень 79.7 %
Скорость извлечения 1.0 X
Качество трека 99.9 %
CRC теста 421E8A8C
CRC копии 421E8A8C
Трек не обнаружен в базе AccurateRip
Копирование... OK
Трек 2
Имя файла C:\Users\Nornore\Documents\EAC rips\Barschai-Beethoven Symphonies\Barschai-Beethoven 02\02. Symphony No. 3 - II. Macia funebre. Adagio assai.wav
Пиковый уровень 70.1 %
Скорость извлечения 1.3 X
Качество трека 100.0 %
CRC теста E3ADD7E7
CRC копии E3ADD7E7
Трек не обнаружен в базе AccurateRip
Копирование... OK
Трек 3
Имя файла C:\Users\Nornore\Documents\EAC rips\Barschai-Beethoven Symphonies\Barschai-Beethoven 02\03. Symphony No. 3 - III. Scherzo. Allegro vivace.wav
Пиковый уровень 66.9 %
Скорость извлечения 1.4 X
Качество трека 100.0 %
CRC теста 35A950A9
CRC копии 35A950A9
Трек не обнаружен в базе AccurateRip
Копирование... OK
Трек 4
Имя файла C:\Users\Nornore\Documents\EAC rips\Barschai-Beethoven Symphonies\Barschai-Beethoven 02\04. Symphony No. 3 - IV. Finale. Allegro molto.wav
Пиковый уровень 73.2 %
Скорость извлечения 1.6 X
Качество трека 100.0 %
CRC теста 1AB39ACF
CRC копии 1AB39ACF
Трек не обнаружен в базе AccurateRip
Копирование... OK
Ни одного трека нет в базе AccurateRip
Ошибок не произошло
Конец отчёта
==== Контрольная сумма отчёта 9658E5B7BAE3966292C5232068E43634E1476DBAD517D11EDA0FF7F1DDE00681 ====

CD03

Exact Audio Copy V1.0 beta 3 from 29. August 2011
Отчёт EAC об извлечении, выполненном 14. декабря 2014, 13:03
Ludwig van Beethoven / Rudolf Barschai / Symphony No. 4 in B flat major Op. 60, No. 5 in C minor Op. 67
Дисковод: MATSHITABD-MLT UJ240ES Adapter: 2 ID: 0
Режим чтения : Достоверность
Использование точного потока : Да
Отключение кэша аудио : Да
Использование указателей C2 : Нет
Коррекция смещения при чтении : 103
Способность читать области Lead-in и Lead-out : Нет
Заполнение пропущенных сэмплов тишиной : Да
Удаление блоков с тишиной в начале и конце : Нет
При вычислениях CRC использовались нулевые сэмплы : Да
Интерфейс : Встроенный Win32-интерфейс для Win NT/2000
Обработка зазоров : Добавлено к предыдущему треку
Выходной формат : Пользовательский кодировщик
Выбранный битрейт : 1024 kBit/s
Качество : Высокий
Добавление ID3-тега : Нет
Утилита сжатия : C:\Program Files (x86)\Exact Audio Copy\Flac\flac.exe
Дополнительные параметры : -V -8 -T "Genre=%genre%" -T "Artist=%artist%" -T "Title=%title%" -T "Album=%albumtitle%" -T "Date=%year%" -T "Tracknumber=%tracknr%" -T "Comment=%comment%" %source%
TOC извлечённого CD
Трек | Старт | Длительность | Начальный сектор | Конечный сектор
---------------------------------------------------------------------
1 | 0:00.00 | 11:18.09 | 0 | 50858
2 | 11:18.09 | 9:26.57 | 50859 | 93365
3 | 20:44.66 | 5:42.41 | 93366 | 119056
4 | 26:27.32 | 6:54.12 | 119057 | 150118
5 | 33:21.44 | 7:52.31 | 150119 | 185549
6 | 41:14.00 | 11:03.55 | 185550 | 235329
7 | 52:17.55 | 5:58.10 | 235330 | 262189
8 | 58:15.65 | 11:59.07 | 262190 | 316121
Трек 1
Имя файла C:\Users\Nornore\Documents\EAC rips\Barschai-Beethoven Symphonies\Barschai-Beethoven 03\01. Symphony No. 4 - I. Adagio. Allegro vivace.wav
Длина предзазора 0:00:02.00
Пиковый уровень 85.0 %
Скорость извлечения 0.9 X
Качество трека 100.0 %
CRC теста D0C9FB48
CRC копии D0C9FB48
Трек не обнаружен в базе AccurateRip
Копирование... OK
Трек 2
Имя файла C:\Users\Nornore\Documents\EAC rips\Barschai-Beethoven Symphonies\Barschai-Beethoven 03\02. Symphony No. 4 - II. Adagio.wav
Пиковый уровень 75.6 %
Скорость извлечения 1.1 X
Качество трека 100.0 %
CRC теста FAAF9C4F
CRC копии FAAF9C4F
Трек не обнаружен в базе AccurateRip
Копирование... OK
Трек 3
Имя файла C:\Users\Nornore\Documents\EAC rips\Barschai-Beethoven Symphonies\Barschai-Beethoven 03\03. Symphony No. 4 - III. Menuetto. Allegro vivace. Trio. Un poco meno allegro.wav
Пиковый уровень 78.5 %
Скорость извлечения 1.2 X
Качество трека 100.0 %
CRC теста CAF65E56
CRC копии CAF65E56
Трек не обнаружен в базе AccurateRip
Копирование... OK
Трек 4
Имя файла C:\Users\Nornore\Documents\EAC rips\Barschai-Beethoven Symphonies\Barschai-Beethoven 03\04. Symphony No. 4 - IV. Allegro ma non troppo.wav
Пиковый уровень 82.4 %
Скорость извлечения 1.3 X
Качество трека 100.0 %
CRC теста DC471004
CRC копии DC471004
Трек не обнаружен в базе AccurateRip
Копирование... OK
Трек 5
Имя файла C:\Users\Nornore\Documents\EAC rips\Barschai-Beethoven Symphonies\Barschai-Beethoven 03\05. Symphony No. 5 - I. Allegro con brio.wav
Пиковый уровень 84.5 %
Скорость извлечения 1.3 X
Качество трека 99.9 %
CRC теста 132338C2
CRC копии 132338C2
Трек не обнаружен в базе AccurateRip
Копирование... OK
Трек 6
Имя файла C:\Users\Nornore\Documents\EAC rips\Barschai-Beethoven Symphonies\Barschai-Beethoven 03\06. Symphony No. 5 - II. Andante con moto.wav
Пиковый уровень 86.0 %
Скорость извлечения 1.6 X
Качество трека 100.0 %
CRC теста 385B5E8B
CRC копии 385B5E8B
Трек не обнаружен в базе AccurateRip
Копирование... OK
Трек 7
Имя файла C:\Users\Nornore\Documents\EAC rips\Barschai-Beethoven Symphonies\Barschai-Beethoven 03\07. Symphony No. 5 - III. Allegro.wav
Пиковый уровень 79.0 %
Скорость извлечения 1.6 X
Качество трека 100.0 %
CRC теста E10B9ED0
CRC копии E10B9ED0
Трек не обнаружен в базе AccurateRip
Копирование... OK
Трек 8
Имя файла C:\Users\Nornore\Documents\EAC rips\Barschai-Beethoven Symphonies\Barschai-Beethoven 03\08. Symphony No. 5 - IV. Allegro. Presto.wav
Пиковый уровень 99.2 %
Скорость извлечения 1.7 X
Качество трека 99.9 %
CRC теста ECFF9E25
CRC копии ECFF9E25
Трек не обнаружен в базе AccurateRip
Копирование... OK
Ни одного трека нет в базе AccurateRip
Ошибок не произошло
Конец отчёта
==== Контрольная сумма отчёта D0048B498328ACF4F26935EF39DB8B2A06BEDBE03B1E6FB88721C39A1861584D ====

CD04

Exact Audio Copy V1.0 beta 3 from 29. August 2011
Отчёт EAC об извлечении, выполненном 14. декабря 2014, 22:16
Ludwig van Beethoven / Rudolf Barschai / Symphony No. 6 in F major, Op. 68 (Pastoral)
Дисковод: MATSHITABD-MLT UJ240ES Adapter: 2 ID: 0
Режим чтения : Достоверность
Использование точного потока : Да
Отключение кэша аудио : Да
Использование указателей C2 : Нет
Коррекция смещения при чтении : 103
Способность читать области Lead-in и Lead-out : Нет
Заполнение пропущенных сэмплов тишиной : Да
Удаление блоков с тишиной в начале и конце : Нет
При вычислениях CRC использовались нулевые сэмплы : Да
Интерфейс : Встроенный Win32-интерфейс для Win NT/2000
Обработка зазоров : Добавлено к предыдущему треку
Выходной формат : Пользовательский кодировщик
Выбранный битрейт : 1024 kBit/s
Качество : Высокий
Добавление ID3-тега : Нет
Утилита сжатия : C:\Program Files (x86)\Exact Audio Copy\Flac\flac.exe
Дополнительные параметры : -V -8 -T "Genre=%genre%" -T "Artist=%artist%" -T "Title=%title%" -T "Album=%albumtitle%" -T "Date=%year%" -T "Tracknumber=%tracknr%" -T "Comment=%comment%" %source%
TOC извлечённого CD
Трек | Старт | Длительность | Начальный сектор | Конечный сектор
---------------------------------------------------------------------
1 | 0:00.00 | 12:36.14 | 0 | 56713
2 | 12:36.14 | 12:18.71 | 56714 | 112134
3 | 24:55.10 | 5:15.40 | 112135 | 135799
4 | 30:10.50 | 3:34.02 | 135800 | 151851
5 | 33:44.52 | 9:12.17 | 151852 | 193268
Трек 1
Имя файла C:\Users\Nornore\Documents\EAC rips\Barschai-Beethoven Symphonies\Barschai-Beethoven 04\01. Symphony No. 6 - I. Erwachen heiterer Gefuele bei der Ankunft auf dem Lande. Allegro ma non troppo.wav
Длина предзазора 0:00:02.00
Пиковый уровень 82.4 %
Скорость извлечения 0.9 X
Качество трека 100.0 %
CRC теста 62C6D2EB
CRC копии 62C6D2EB
Трек не обнаружен в базе AccurateRip
Копирование... OK
Трек 2
Имя файла C:\Users\Nornore\Documents\EAC rips\Barschai-Beethoven Symphonies\Barschai-Beethoven 04\02. Symphony No. 6 - II. Szene am Bach. Andante molto moto.wav
Пиковый уровень 75.8 %
Скорость извлечения 1.2 X
Качество трека 100.0 %
CRC теста A5A9ECBA
CRC копии A5A9ECBA
Трек не обнаружен в базе AccurateRip
Копирование... OK
Трек 3
Имя файла C:\Users\Nornore\Documents\EAC rips\Barschai-Beethoven Symphonies\Barschai-Beethoven 04\03. Symphony No. 6 - III. Lustiges Zusammensein der Landleute. Allegro.wav
Пиковый уровень 68.8 %
Скорость извлечения 1.2 X
Качество трека 100.0 %
CRC теста 7DF307DF
CRC копии 7DF307DF
Трек не обнаружен в базе AccurateRip
Копирование... OK
Трек 4
Имя файла C:\Users\Nornore\Documents\EAC rips\Barschai-Beethoven Symphonies\Barschai-Beethoven 04\04. Symphony No. 6 - IV. Gewitter und Sturm. Allegro.wav
Пиковый уровень 74.0 %
Скорость извлечения 1.2 X
Качество трека 100.0 %
CRC теста EE0E94E4
CRC копии EE0E94E4
Трек не обнаружен в базе AccurateRip
Копирование... OK
Трек 5
Имя файла C:\Users\Nornore\Documents\EAC rips\Barschai-Beethoven Symphonies\Barschai-Beethoven 04\05. Symphony No. 6 - V. Hirtengesaenge. Frohe und dankbare. Gefuehle nach dem Sturm. Allegretto.wav
Пиковый уровень 67.9 %
Скорость извлечения 1.4 X
Качество трека 100.0 %
CRC теста 8CD6FF67
CRC копии 8CD6FF67
Трек не обнаружен в базе AccurateRip
Копирование... OK
Ни одного трека нет в базе AccurateRip
Ошибок не произошло
Конец отчёта
==== Контрольная сумма отчёта D3135C796AC227F2A6D123C33A0C5F82B84E9F8AE37BA7D95930630F2B8CA25D ====

CD05

Exact Audio Copy V1.0 beta 3 from 29. August 2011
Отчёт EAC об извлечении, выполненном 15. декабря 2014, 1:16
Ludwig van Beethoven / Rudolf Barschai / Symphony No. 7 in A major, Op. 92, No. 8 in F major, Op. 93
Дисковод: MATSHITABD-MLT UJ240ES Adapter: 2 ID: 0
Режим чтения : Достоверность
Использование точного потока : Да
Отключение кэша аудио : Да
Использование указателей C2 : Нет
Коррекция смещения при чтении : 103
Способность читать области Lead-in и Lead-out : Нет
Заполнение пропущенных сэмплов тишиной : Да
Удаление блоков с тишиной в начале и конце : Нет
При вычислениях CRC использовались нулевые сэмплы : Да
Интерфейс : Встроенный Win32-интерфейс для Win NT/2000
Обработка зазоров : Добавлено к предыдущему треку
Выходной формат : Пользовательский кодировщик
Выбранный битрейт : 1024 kBit/s
Качество : Высокий
Добавление ID3-тега : Нет
Утилита сжатия : C:\Program Files (x86)\Exact Audio Copy\Flac\flac.exe
Дополнительные параметры : -V -8 -T "Genre=%genre%" -T "Artist=%artist%" -T "Title=%title%" -T "Album=%albumtitle%" -T "Date=%year%" -T "Tracknumber=%tracknr%" -T "Comment=%comment%" %source%
TOC извлечённого CD
Трек | Старт | Длительность | Начальный сектор | Конечный сектор
---------------------------------------------------------------------
1 | 0:00.00 | 17:06.68 | 0 | 77017
2 | 17:06.68 | 10:04.19 | 77018 | 122336
3 | 27:11.12 | 10:25.29 | 122337 | 169240
4 | 37:36.41 | 8:44.09 | 169241 | 208549
5 | 46:20.50 | 9:49.66 | 208550 | 252790
6 | 56:10.41 | 4:21.58 | 252791 | 272423
7 | 60:32.24 | 5:30.22 | 272424 | 297195
8 | 66:02.46 | 8:04.02 | 297196 | 333497
Трек 1
Имя файла C:\Users\Nornore\Documents\EAC rips\Barschai-Beethoven Symphonies\Barschai-Beethoven 05\01. Symphony No. 7 - I. Poco sostenuto. Vivace.wav
Длина предзазора 0:00:02.00
Пиковый уровень 97.7 %
Скорость извлечения 1.0 X
Качество трека 100.0 %
CRC теста 16D7DABC
CRC копии 16D7DABC
Трек не обнаружен в базе AccurateRip
Копирование... OK
Трек 2
Имя файла C:\Users\Nornore\Documents\EAC rips\Barschai-Beethoven Symphonies\Barschai-Beethoven 05\02. Symphony No. 7 - II. Allegretto.wav
Пиковый уровень 99.8 %
Скорость извлечения 1.1 X
Качество трека 99.9 %
CRC теста 50EB7003
CRC копии 50EB7003
Трек не обнаружен в базе AccurateRip
Копирование... OK
Трек 3
Имя файла C:\Users\Nornore\Documents\EAC rips\Barschai-Beethoven Symphonies\Barschai-Beethoven 05\03. Symphony No. 7 - III. Presto. Trio. Assai meno presto.wav
Пиковый уровень 100.0 %
Скорость извлечения 1.4 X
Качество трека 100.0 %
CRC теста 31370BA9
CRC копии 31370BA9
Трек не обнаружен в базе AccurateRip
Копирование... OK
Трек 4
Имя файла C:\Users\Nornore\Documents\EAC rips\Barschai-Beethoven Symphonies\Barschai-Beethoven 05\04. Symphony No. 7 - IV. Allegro con brio.wav
Пиковый уровень 80.3 %
Скорость извлечения 1.5 X
Качество трека 100.0 %
CRC теста 8DFFEC4D
CRC копии 8DFFEC4D
Трек не обнаружен в базе AccurateRip
Копирование... OK
Трек 5
Имя файла C:\Users\Nornore\Documents\EAC rips\Barschai-Beethoven Symphonies\Barschai-Beethoven 05\05. Symphony No. 8 - I. Allegro vivace e con brio.wav
Пиковый уровень 62.7 %
Скорость извлечения 1.6 X
Качество трека 100.0 %
CRC теста 0C2A4691
CRC копии 0C2A4691
Трек не обнаружен в базе AccurateRip
Копирование... OK
Трек 6
Имя файла C:\Users\Nornore\Documents\EAC rips\Barschai-Beethoven Symphonies\Barschai-Beethoven 05\06. Symphony No. 8 - II. Allegretto scherzando.wav
Пиковый уровень 58.4 %
Скорость извлечения 1.6 X
Качество трека 100.0 %
CRC теста 27C8B111
CRC копии 27C8B111
Трек не обнаружен в базе AccurateRip
Копирование... OK
Трек 7
Имя файла C:\Users\Nornore\Documents\EAC rips\Barschai-Beethoven Symphonies\Barschai-Beethoven 05\07. Symphony No. 8 - III. Tempo di menuetto.wav
Пиковый уровень 64.3 %
Скорость извлечения 1.7 X
Качество трека 100.0 %
CRC теста CA0E4D9D
CRC копии CA0E4D9D
Трек не обнаружен в базе AccurateRip
Копирование... OK
Трек 8
Имя файла C:\Users\Nornore\Documents\EAC rips\Barschai-Beethoven Symphonies\Barschai-Beethoven 05\08. Symphony No. 8 - IV. Allegro vivace.wav
Пиковый уровень 60.5 %
Скорость извлечения 1.8 X
Качество трека 100.0 %
CRC теста 1A712425
CRC копии 1A712425
Трек не обнаружен в базе AccurateRip
Копирование... OK
Ни одного трека нет в базе AccurateRip
Ошибок не произошло
Конец отчёта
==== Контрольная сумма отчёта D9194E8DCEF5CA5EEEC7F23FAD35DD9E0ACB9B23EF503C41070A6511E1C1F59E ====

Содержание индексной карты (.CUE)CD01

REM GENRE Classical
REM DATE 1969
REM DISCID 7C0F1408
REM COMMENT "ExactAudioCopy v1.0b3"
PERFORMER "Ludwig van Beethoven / Rudolf Barschai"
TITLE "Symphony No. 1 in C major, Op. 21, No. 2 in D major, Op. 36"
FILE "01. Symphony No. 1 - I. Adagio molto. Allegro con brio.wav" WAVE
TRACK 01 AUDIO
TITLE "Symphony No. 1 - I. Adagio molto. Allegro con brio"
PERFORMER "Ludwig van Beethoven / Rudolf Barschai"
INDEX 01 00:00:00
FILE "02. Symphony No. 1 - II. Andante cantabile con moto.wav" WAVE
TRACK 02 AUDIO
TITLE "Symphony No. 1 - II. Andante cantabile con moto"
PERFORMER "Ludwig van Beethoven / Rudolf Barschai"
INDEX 01 00:00:00
FILE "03. Symphony No. 1 - III. Menuetto. Allegro molto e vivace.wav" WAVE
TRACK 03 AUDIO
TITLE "Symphony No. 1 - III. Menuetto. Allegro molto e vivace"
PERFORMER "Ludwig van Beethoven / Rudolf Barschai"
INDEX 01 00:00:00
FILE "04. Symphony No. 1 - IV. Adagio. Allegro molto e vivace.wav" WAVE
TRACK 04 AUDIO
TITLE "Symphony No. 1 - IV. Adagio. Allegro molto e vivace"
PERFORMER "Ludwig van Beethoven / Rudolf Barschai"
INDEX 01 00:00:00
FILE "05. Symphony No. 2 - I. Adagio molto. Allegro con brio.wav" WAVE
TRACK 05 AUDIO
TITLE "Symphony No. 2 - I. Adagio molto. Allegro con brio"
PERFORMER "Ludwig van Beethoven / Rudolf Barschai"
INDEX 01 00:00:00
FILE "06. Symphony No. 2 - II. Larghetto.wav" WAVE
TRACK 06 AUDIO
TITLE "Symphony No. 2 - II. Larghetto"
PERFORMER "Ludwig van Beethoven / Rudolf Barschai"
INDEX 01 00:00:00
FILE "07. Symphony No. 2 - III. Scherzo. Allegro.wav" WAVE
TRACK 07 AUDIO
TITLE "Symphony No. 2 - III. Scherzo. Allegro"
PERFORMER "Ludwig van Beethoven / Rudolf Barschai"
INDEX 01 00:00:00
FILE "08. Symphony No. 2 - IV. Allegro molto.wav" WAVE
TRACK 08 AUDIO
TITLE "Symphony No. 2 - IV. Allegro molto"
PERFORMER "Ludwig van Beethoven / Rudolf Barschai"
INDEX 01 00:00:00

CD02

REM GENRE Classical
REM DATE 1972
REM DISCID 1F0CD104
REM COMMENT "ExactAudioCopy v1.0b3"
PERFORMER "Ludwig van Beethoven / Rudolf Barschai"
TITLE "Symphony No. 3 in E flat major, Op. 55 (Eroica)"
FILE "01. Symphony No. 3 - I. Allego con brio.wav" WAVE
TRACK 01 AUDIO
TITLE "Symphony No. 3 - I. Allego con brio"
PERFORMER "Ludwig van Beethoven / Rudolf Barschai"
INDEX 01 00:00:00
FILE "02. Symphony No. 3 - II. Macia funebre. Adagio assai.wav" WAVE
TRACK 02 AUDIO
TITLE "Symphony No. 3 - II. Macia funebre. Adagio assai"
PERFORMER "Ludwig van Beethoven / Rudolf Barschai"
INDEX 01 00:00:00
FILE "03. Symphony No. 3 - III. Scherzo. Allegro vivace.wav" WAVE
TRACK 03 AUDIO
TITLE "Symphony No. 3 - III. Scherzo. Allegro vivace"
PERFORMER "Ludwig van Beethoven / Rudolf Barschai"
INDEX 01 00:00:00
FILE "04. Symphony No. 3 - IV. Finale. Allegro molto.wav" WAVE
TRACK 04 AUDIO
TITLE "Symphony No. 3 - IV. Finale. Allegro molto"
PERFORMER "Ludwig van Beethoven / Rudolf Barschai"
INDEX 01 00:00:00

CD03

REM GENRE Classical
REM DATE 1973
REM DISCID 73107608
REM COMMENT "ExactAudioCopy v1.0b3"
PERFORMER "Ludwig van Beethoven / Rudolf Barschai"
TITLE "Symphony No. 4 in B flat major Op. 60, No. 5 in C minor Op. 67"
FILE "01. Symphony No. 4 - I. Adagio. Allegro vivace.wav" WAVE
TRACK 01 AUDIO
TITLE "Symphony No. 4 - I. Adagio. Allegro vivace"
PERFORMER "Ludwig van Beethoven / Rudolf Barschai"
INDEX 01 00:00:00
FILE "02. Symphony No. 4 - II. Adagio.wav" WAVE
TRACK 02 AUDIO
TITLE "Symphony No. 4 - II. Adagio"
PERFORMER "Ludwig van Beethoven / Rudolf Barschai"
INDEX 01 00:00:00
FILE "03. Symphony No. 4 - III. Menuetto. Allegro vivace. Trio. Un poco meno allegro.wav" WAVE
TRACK 03 AUDIO
TITLE "Symphony No. 4 - III. Menuetto. Allegro vivace. Trio. Un poco meno allegro"
PERFORMER "Ludwig van Beethoven / Rudolf Barschai"
INDEX 01 00:00:00
FILE "04. Symphony No. 4 - IV. Allegro ma non troppo.wav" WAVE
TRACK 04 AUDIO
TITLE "Symphony No. 4 - IV. Allegro ma non troppo"
PERFORMER "Ludwig van Beethoven / Rudolf Barschai"
INDEX 01 00:00:00
FILE "05. Symphony No. 5 - I. Allegro con brio.wav" WAVE
TRACK 05 AUDIO
TITLE "Symphony No. 5 - I. Allegro con brio"
PERFORMER "Ludwig van Beethoven / Rudolf Barschai"
INDEX 01 00:00:00
FILE "06. Symphony No. 5 - II. Andante con moto.wav" WAVE
TRACK 06 AUDIO
TITLE "Symphony No. 5 - II. Andante con moto"
PERFORMER "Ludwig van Beethoven / Rudolf Barschai"
INDEX 01 00:00:00
FILE "07. Symphony No. 5 - III. Allegro.wav" WAVE
TRACK 07 AUDIO
TITLE "Symphony No. 5 - III. Allegro"
PERFORMER "Ludwig van Beethoven / Rudolf Barschai"
INDEX 01 00:00:00
FILE "08. Symphony No. 5 - IV. Allegro. Presto.wav" WAVE
TRACK 08 AUDIO
TITLE "Symphony No. 5 - IV. Allegro. Presto"
PERFORMER "Ludwig van Beethoven / Rudolf Barschai"
INDEX 01 00:00:00

CD04

REM GENRE Classical
REM DATE 1971
REM DISCID 410A1005
REM COMMENT "ExactAudioCopy v1.0b3"
PERFORMER "Ludwig van Beethoven / Rudolf Barschai"
TITLE "Symphony No. 6 in F major, Op. 68 (Pastoral)"
FILE "01. Symphony No. 6 - I. Erwachen heiterer Gefuele bei der Ankunft auf dem Lande. Allegro ma non troppo.wav" WAVE
TRACK 01 AUDIO
TITLE "Symphony No. 6 - I. Erwachen heiterer Gefuele bei der Ankunft auf dem Lande. ..."
PERFORMER "Ludwig van Beethoven / Rudolf Barschai"
INDEX 01 00:00:00
FILE "02. Symphony No. 6 - II. Szene am Bach. Andante molto moto.wav" WAVE
TRACK 02 AUDIO
TITLE "Symphony No. 6 - II. Szene am Bach. Andante molto moto"
PERFORMER "Ludwig van Beethoven / Rudolf Barschai"
INDEX 01 00:00:00
FILE "03. Symphony No. 6 - III. Lustiges Zusammensein der Landleute. Allegro.wav" WAVE
TRACK 03 AUDIO
TITLE "Symphony No. 6 - III. Lustiges Zusammensein der Landleute. Allegro"
PERFORMER "Ludwig van Beethoven / Rudolf Barschai"
INDEX 01 00:00:00
FILE "04. Symphony No. 6 - IV. Gewitter und Sturm. Allegro.wav" WAVE
TRACK 04 AUDIO
TITLE "Symphony No. 6 - IV. Gewitter und Sturm. Allegro"
PERFORMER "Ludwig van Beethoven / Rudolf Barschai"
INDEX 01 00:00:00
FILE "05. Symphony No. 6 - V. Hirtengesaenge. Frohe und dankbare. Gefuehle nach dem Sturm. Allegretto.wav" WAVE
TRACK 05 AUDIO
TITLE "Symphony No. 6 - V. Hirtengesaenge. Frohe und dankbare. Gefuehle nach dem Stu..."
PERFORMER "Ludwig van Beethoven / Rudolf Barschai"
INDEX 01 00:00:00

CD05

REM GENRE Classical
REM DATE 1975
REM DISCID 73115E08
REM COMMENT "ExactAudioCopy v1.0b3"
PERFORMER "Ludwig van Beethoven / Rudolf Barschai"
TITLE "Symphony No. 7 in A major, Op. 92, No. 8 in F major, Op. 93"
FILE "01. Symphony No. 7 - I. Poco sostenuto. Vivace.wav" WAVE
TRACK 01 AUDIO
TITLE "Symphony No. 7 - I. Poco sostenuto. Vivace"
PERFORMER "Ludwig van Beethoven / Rudolf Barschai"
INDEX 01 00:00:00
FILE "02. Symphony No. 7 - II. Allegretto.wav" WAVE
TRACK 02 AUDIO
TITLE "Symphony No. 7 - II. Allegretto"
PERFORMER "Ludwig van Beethoven / Rudolf Barschai"
INDEX 01 00:00:00
FILE "03. Symphony No. 7 - III. Presto. Trio. Assai meno presto.wav" WAVE
TRACK 03 AUDIO
TITLE "Symphony No. 7 - III. Presto. Trio. Assai meno presto"
PERFORMER "Ludwig van Beethoven / Rudolf Barschai"
INDEX 01 00:00:00
FILE "04. Symphony No. 7 - IV. Allegro con brio.wav" WAVE
TRACK 04 AUDIO
TITLE "Symphony No. 7 - IV. Allegro con brio"
PERFORMER "Ludwig van Beethoven / Rudolf Barschai"
INDEX 01 00:00:00
FILE "05. Symphony No. 8 - I. Allegro vivace e con brio.wav" WAVE
TRACK 05 AUDIO
TITLE "Symphony No. 8 - I. Allegro vivace e con brio"
PERFORMER "Ludwig van Beethoven / Rudolf Barschai"
INDEX 01 00:00:00
FILE "06. Symphony No. 8 - II. Allegretto scherzando.wav" WAVE
TRACK 06 AUDIO
TITLE "Symphony No. 8 - II. Allegretto scherzando"
PERFORMER "Ludwig van Beethoven / Rudolf Barschai"
INDEX 01 00:00:00
FILE "07. Symphony No. 8 - III. Tempo di menuetto.wav" WAVE
TRACK 07 AUDIO
TITLE "Symphony No. 8 - III. Tempo di menuetto"
PERFORMER "Ludwig van Beethoven / Rudolf Barschai"
INDEX 01 00:00:00
FILE "08. Symphony No. 8 - IV. Allegro vivace.wav" WAVE
TRACK 08 AUDIO
TITLE "Symphony No. 8 - IV. Allegro vivace"
PERFORMER "Ludwig van Beethoven / Rudolf Barschai"
INDEX 01 00:00:00



Показать сообщения:    

Текущее время: 07-Дек 11:34

Часовой пояс: UTC + 3


Вы не можете начинать темы
Вы не можете отвечать на сообщения
Вы не можете редактировать свои сообщения
Вы не можете удалять свои сообщения
Вы не можете голосовать в опросах
Вы не можете прикреплять файлы к сообщениям
Вы не можете скачивать файлы