(Christmas) Erich Kunzel, Cincinnati Pops Orchestra (A.H.Callaway,T.DeSare,King\'s Singers,T.Sutton) - Christmastime Is Here- 2006, FLAC (tracks+.cue) lossless


 

[Цитировать]

Erich Kunzel, Cincinnati Pops Orchestra - Christmastime Is Here
Жанр: Christmas
Страна-производитель диска: USA
Год издания диска: 2006
Издатель (лейбл): Telarc
Номер по каталогу: CD-80538
Аудиокодек: FLAC
Тип рипа: tracks+.cue
Битрейт аудио: lossless
Продолжительность: 0:58:05.
Источник: собственный рип
Наличие сканов в содержимом раздачи: да
Треклист:
01. Sing with Us of Christmas [0:08:22.55]
02. Precious Moments [0:02:45.35]
03. I Wonder as I Wander [0:04:35.16]
04. Christmastime Is Here [0:03:26.15]
05. It's the Most Wonderful Time of the Year [0:03:16.41]
06. Silent Night [0:03:22.24]
07. Little Drummer Boy [0:04:02.24]
08. We Need a Little Christmas [0:03:02.26]
09. The Christmas Song [0:04:54.35]
10. Caroling Fun [0:06:02.11]
11. Jingle Bell Rock [0:02:10.67]
12. I'll Be Home for Christmas [0:03:25.00]
13. It's Beginning to Look a Lot Like Christmas [0:03:54.19]
14. Silver Bells [0:04:45.62]
Исполнители:
Cincinnati Pops Orchestra, Erich Kunzel,
Indiana University Singing Hoosiers (1,5,8,12,13),
Ann Hampton Callaway (3),
School for the Creative and Performing Arts Children's Choir (4,10),
King's Singers (6),
Tony DeSare (9),
Tierney Sutton (12),
John Pizzarelli (14).

Лог создания рипа

Exact Audio Copy V1.0 beta 3 from 29. August 2011
Отчёт EAC об извлечении, выполненном 19. декабря 2014, 20:06
Various Artists / Christmastime Is Here
Дисковод: ASUS DRW-1814BLT Adapter: 4 ID: 0
Режим чтения : ДостоверностьИспользование точного потока : ДаОтключение кэша аудио : ДаИспользование указателей C2 : Нет
Коррекция смещения при чтении : 6Способность читать области Lead-in и Lead-out : НетЗаполнение пропущенных сэмплов тишиной : ДаУдаление блоков с тишиной в начале и конце : НетПри вычислениях CRC использовались нулевые сэмплы : ДаИнтерфейс : Встроенный Win32-интерфейс для Win NT/2000Обработка зазоров : Добавлено к предыдущему треку
Выходной формат : Пользовательский кодировщикВыбранный битрейт : 128 kBit/sКачество : ВысокийДобавление ID3-тега : НетУтилита сжатия : C:\Program Files\Exact Audio Copy\Flac\flac.exeДополнительные параметры : -V -8 -T "Genre=%genre%" -T "Artist=%artist%" -T "Title=%title%" -T "Album=%albumtitle%" -T "Date=%year%" -T "Tracknumber=%tracknr%" -T "Comment=EAC1.0b2 FLAC -8" %source%
TOC извлечённого CD
Трек | Старт | Длительность | Начальный сектор | Конечный сектор --------------------------------------------------------------------- 1 | 0:00.00 | 8:22.55 | 0 | 37704 2 | 8:22.55 | 2:45.35 | 37705 | 50114 3 | 11:08.15 | 4:35.16 | 50115 | 70755 4 | 15:43.31 | 3:26.15 | 70756 | 86220 5 | 19:09.46 | 3:16.41 | 86221 | 100961 6 | 22:26.12 | 3:22.24 | 100962 | 116135 7 | 25:48.36 | 4:02.24 | 116136 | 134309 8 | 29:50.60 | 3:02.26 | 134310 | 147985 9 | 32:53.11 | 4:54.35 | 147986 | 170070 10 | 37:47.46 | 6:02.11 | 170071 | 197231 11 | 43:49.57 | 2:10.67 | 197232 | 207048 12 | 46:00.49 | 3:25.00 | 207049 | 222423 13 | 49:25.49 | 3:54.19 | 222424 | 239992 14 | 53:19.68 | 4:45.62 | 239993 | 261429
Трек 1
Имя файла R:\Раздача 30\Erich Kunzel, Cincinnati Pops Orchestra (A.H.Callaway,T.DeSare,King's Singers,T.Sutton) - 2006 - Christmastime Is Here\01 Sing with Us of Christmas.wav
Длина предзазора 0:00:02.00
Пиковый уровень 98.5 % Скорость извлечения 6.5 X Качество трека 100.0 % CRC теста AFA2980A CRC копии AFA2980A Точное извлечение (достоверность 8) [79C5519F] (AR v2) Копирование... OK
Трек 2
Имя файла R:\Раздача 30\Erich Kunzel, Cincinnati Pops Orchestra (A.H.Callaway,T.DeSare,King's Singers,T.Sutton) - 2006 - Christmastime Is Here\02 Precious Moments.wav
Пиковый уровень 99.2 % Скорость извлечения 6.3 X Качество трека 100.0 % CRC теста 500FDAD7 CRC копии 500FDAD7 Точное извлечение (достоверность 8) [B22BD43C] (AR v2) Копирование... OK
Трек 3
Имя файла R:\Раздача 30\Erich Kunzel, Cincinnati Pops Orchestra (A.H.Callaway,T.DeSare,King's Singers,T.Sutton) - 2006 - Christmastime Is Here\03 I Wonder as I Wander.wav
Пиковый уровень 99.1 % Скорость извлечения 5.4 X Качество трека 99.9 % CRC теста 7FE8855E CRC копии 7FE8855E Точное извлечение (достоверность 8) [2968E978] (AR v2) Копирование... OK
Трек 4
Имя файла R:\Раздача 30\Erich Kunzel, Cincinnati Pops Orchestra (A.H.Callaway,T.DeSare,King's Singers,T.Sutton) - 2006 - Christmastime Is Here\04 Christmastime Is Here.wav
Пиковый уровень 90.1 % Скорость извлечения 5.4 X Качество трека 99.9 % CRC теста EBB72AB0 CRC копии EBB72AB0 Точное извлечение (достоверность 8) [DCAE6187] (AR v2) Копирование... OK
Трек 5
Имя файла R:\Раздача 30\Erich Kunzel, Cincinnati Pops Orchestra (A.H.Callaway,T.DeSare,King's Singers,T.Sutton) - 2006 - Christmastime Is Here\05 It's the Most Wonderful Time of the Year.wav
Длина предзазора 0:00:02.32
Пиковый уровень 98.5 % Скорость извлечения 5.5 X Качество трека 99.9 % CRC теста FD87A7AF CRC копии FD87A7AF Точное извлечение (достоверность 8) [F20ABADB] (AR v2) Копирование... OK
Трек 6
Имя файла R:\Раздача 30\Erich Kunzel, Cincinnati Pops Orchestra (A.H.Callaway,T.DeSare,King's Singers,T.Sutton) - 2006 - Christmastime Is Here\06 Silent Night.wav
Длина предзазора 0:00:03.59
Пиковый уровень 35.0 % Скорость извлечения 6.7 X Качество трека 100.0 % CRC теста 5A22B7B2 CRC копии 5A22B7B2 Точное извлечение (достоверность 8) [B6FEE9FF] (AR v2) Копирование... OK
Трек 7
Имя файла R:\Раздача 30\Erich Kunzel, Cincinnati Pops Orchestra (A.H.Callaway,T.DeSare,King's Singers,T.Sutton) - 2006 - Christmastime Is Here\07 Little Drummer Boy.wav
Длина предзазора 0:00:02.04
Пиковый уровень 98.6 % Скорость извлечения 6.3 X Качество трека 99.9 % CRC теста 15181669 CRC копии 15181669 Точное извлечение (достоверность 8) [E55AE5F2] (AR v2) Копирование... OK
Трек 8
Имя файла R:\Раздача 30\Erich Kunzel, Cincinnati Pops Orchestra (A.H.Callaway,T.DeSare,King's Singers,T.Sutton) - 2006 - Christmastime Is Here\08 We Need a Little Christmas.wav
Длина предзазора 0:00:03.09
Пиковый уровень 98.5 % Скорость извлечения 8.3 X Качество трека 100.0 % CRC теста F0BD73DC CRC копии F0BD73DC Точное извлечение (достоверность 8) [A2D92057] (AR v2) Копирование... OK
Трек 9
Имя файла R:\Раздача 30\Erich Kunzel, Cincinnati Pops Orchestra (A.H.Callaway,T.DeSare,King's Singers,T.Sutton) - 2006 - Christmastime Is Here\09 The Christmas Song.wav
Длина предзазора 0:00:03.17
Пиковый уровень 83.6 % Скорость извлечения 7.0 X Качество трека 99.9 % CRC теста B7E7A663 CRC копии B7E7A663 Точное извлечение (достоверность 8) [E9D3B9D3] (AR v2) Копирование... OK
Трек 10
Имя файла R:\Раздача 30\Erich Kunzel, Cincinnati Pops Orchestra (A.H.Callaway,T.DeSare,King's Singers,T.Sutton) - 2006 - Christmastime Is Here\10 Caroling Fun.wav
Длина предзазора 0:00:02.74
Пиковый уровень 98.6 % Скорость извлечения 8.4 X Качество трека 100.0 % CRC теста EAF643AB CRC копии EAF643AB Точное извлечение (достоверность 8) [1B50EE22] (AR v2) Копирование... OK
Трек 11
Имя файла R:\Раздача 30\Erich Kunzel, Cincinnati Pops Orchestra (A.H.Callaway,T.DeSare,King's Singers,T.Sutton) - 2006 - Christmastime Is Here\11 Jingle Bell Rock.wav
Длина предзазора 0:00:03.66
Пиковый уровень 98.6 % Скорость извлечения 8.6 X Качество трека 100.0 % CRC теста 692720FB CRC копии 692720FB Точное извлечение (достоверность 8) [34F74942] (AR v2) Копирование... OK
Трек 12
Имя файла R:\Раздача 30\Erich Kunzel, Cincinnati Pops Orchestra (A.H.Callaway,T.DeSare,King's Singers,T.Sutton) - 2006 - Christmastime Is Here\12 I'll Be Home for Christmas.wav
Длина предзазора 0:00:01.47
Пиковый уровень 79.2 % Скорость извлечения 5.6 X Качество трека 99.9 % CRC теста 4A3985B7 CRC копии 4A3985B7 Точное извлечение (достоверность 8) [9D40C0F6] (AR v2) Копирование... OK
Трек 13
Имя файла R:\Раздача 30\Erich Kunzel, Cincinnati Pops Orchestra (A.H.Callaway,T.DeSare,King's Singers,T.Sutton) - 2006 - Christmastime Is Here\13 It's Beginning to Look a Lot Like Christmas.wav
Длина предзазора 0:00:03.10
Пиковый уровень 98.5 % Скорость извлечения 8.5 X Качество трека 100.0 % CRC теста 837274ED CRC копии 837274ED Точное извлечение (достоверность 8) [EB2A519B] (AR v2) Копирование... OK
Трек 14
Имя файла R:\Раздача 30\Erich Kunzel, Cincinnati Pops Orchestra (A.H.Callaway,T.DeSare,King's Singers,T.Sutton) - 2006 - Christmastime Is Here\14 Silver Bells.wav
Длина предзазора 0:00:01.70
Пиковый уровень 72.9 % Скорость извлечения 2.8 X Качество трека 99.9 % CRC теста C48AE40F CRC копии C48AE40F Точное извлечение (достоверность 7) [E48A695D] (AR v2) Копирование... OK
Все треки извлечены точно
Ошибок не произошло
Конец отчёта
==== Контрольная сумма отчёта D5F1549E088C1FFA4410AA59383792E4C737BDD6BBCFDC244597B83DA809572C ====

Содержание индексной карты (.CUE)

REM GENRE ChristmasREM DATE 2006REM DISCID C40D9D0EREM COMMENT "ExactAudioCopy v1.0b3"PERFORMER "Various Artists"TITLE "Christmastime Is Here"FILE "01 Sing with Us of Christmas.wav" WAVE TRACK 01 AUDIO TITLE "Sing with Us of Christmas" PERFORMER "Indiana University Singing Hoosiers" ISRC H2L?10601538 INDEX 01 00:00:00FILE "02 Precious Moments.wav" WAVE TRACK 02 AUDIO TITLE "Precious Moments" PERFORMER "Various Artists" ISRC H2L?10602538 INDEX 01 00:00:00FILE "03 I Wonder as I Wander.wav" WAVE TRACK 03 AUDIO TITLE "I Wonder as I Wander" PERFORMER "Ann Hampton Callaway" ISRC H2L?10603538 INDEX 01 00:00:00FILE "04 Christmastime Is Here.wav" WAVE TRACK 04 AUDIO TITLE "Christmastime Is Here" PERFORMER "School for the Creative and Performing Arts Children's Choir" ISRC H2L?10604538 INDEX 01 00:00:00 TRACK 05 AUDIO TITLE "It's the Most Wonderful Time of the Year" PERFORMER "Indiana University Singing Hoosiers" ISRC H2L?10605538 INDEX 00 03:23:58FILE "05 It's the Most Wonderful Time of the Year.wav" WAVE INDEX 01 00:00:00 TRACK 06 AUDIO TITLE "Silent Night" PERFORMER "King's Singers" ISRC H2L?10606538 INDEX 00 03:12:57FILE "06 Silent Night.wav" WAVE INDEX 01 00:00:00 TRACK 07 AUDIO TITLE "Little Drummer Boy" PERFORMER "Various Artists" ISRC H2L?10607538 INDEX 00 03:20:20FILE "07 Little Drummer Boy.wav" WAVE INDEX 01 00:00:00 TRACK 08 AUDIO TITLE "We Need a Little Christmas" PERFORMER "Indiana University Singing Hoosiers" ISRC H2L?10608538 INDEX 00 03:59:15FILE "08 We Need a Little Christmas.wav" WAVE INDEX 01 00:00:00 TRACK 09 AUDIO TITLE "The Christmas Song" PERFORMER "Tony DeSare" ISRC H2L?10609538 INDEX 00 02:59:09FILE "09 The Christmas Song.wav" WAVE INDEX 01 00:00:00 TRACK 10 AUDIO TITLE "Caroling Fun" PERFORMER "School for the Creative and Performing Arts Children's Choir" ISRC H2L?10610538 INDEX 00 04:51:36FILE "10 Caroling Fun.wav" WAVE INDEX 01 00:00:00 TRACK 11 AUDIO TITLE "Jingle Bell Rock" PERFORMER "Various Artists" ISRC H2L?10611538 INDEX 00 05:58:20FILE "11 Jingle Bell Rock.wav" WAVE INDEX 01 00:00:00 TRACK 12 AUDIO TITLE "I'll Be Home for Christmas" PERFORMER "Tierney Sutton, Indiana University Singing Hoosiers" ISRC H2L?10612538 INDEX 00 02:09:20FILE "12 I'll Be Home for Christmas.wav" WAVE INDEX 01 00:00:00 TRACK 13 AUDIO TITLE "It's Beginning to Look a Lot Like Christmas" PERFORMER "Indiana University Singing Hoosiers" ISRC H2L?10613538 INDEX 00 03:21:65FILE "13 It's Beginning to Look a Lot Like Christmas.wav" WAVE INDEX 01 00:00:00 TRACK 14 AUDIO TITLE "Silver Bells" PERFORMER "John Pizzarelli" ISRC H2L?10614538 INDEX 00 03:52:24FILE "14 Silver Bells.wav" WAVE INDEX 01 00:00:00



Показать сообщения:    

Текущее время: 02-Дек 23:10

Часовой пояс: UTC + 3


Вы не можете начинать темы
Вы не можете отвечать на сообщения
Вы не можете редактировать свои сообщения
Вы не можете удалять свои сообщения
Вы не можете голосовать в опросах
Вы не можете прикреплять файлы к сообщениям
Вы не можете скачивать файлы