(Classical, ballet) Микис Теодоракис - Карнавал / Mikis Theodorakis - Carnaval (Ballet Suite for Orchestra) // Dimitri Arapis - A story of the sea (Symphony No.3) {ГАСК России, В. Полянский} - 2008, FLAC (image+.cue) lossless


 

[Цитировать]

Mikis Theodorakis - Carnaval (Ballet Suite for Orchestra)
Dimitri Arapis - A story of the sea (Symphony No.3)

Жанр: Classical
Страна-производитель диска: Греция
Год издания диска: 2008
Издатель (лейбл): Kastaniotis Editions
Номер по каталогу: ISBN: 978-960-03-4658-9
Дата записи: 22.03.2007
Аудиокодек: FLAC
Тип рипа: image+.cue
Битрейт аудио: lossless
Продолжительность: 1:13:13
Источник: собственный рип
Наличие сканов в содержимом раздачи: да
Треклист:
Mikis Theodorakis: Carnaval, ballet suite for orchestra,Introduction - 1:25I. Men's Dance - 2:37II. Great Dance - 5:06III. Love Dance - 4:57IV. Divertimento - 1:03V. Three Carnaval Dances: Maypole - 0:59 Pony - 2:03 Camel - 2:02VI. The Girl's Dance - 6:18VII. Finale - 6:44
Dimitri Arapis: Symphony No.3, A story of the sea,1st MOVEMENT In the waves - 11:592nd MOVEMENT Theme and sea - 8:363rd MOVEMENT Depths of harmonia - 9:504th MOVEMENT Chaos and conception - 9:35

Исполнители:
Государственная академическая симфоническая капелла России, Валерий Полянский
Видео - здесь.

Лог создания рипа

Exact Audio Copy V1.0 beta 3 from 29. August 2011
EAC extraction logfile from 25. December 2014, 17:27
State Symphony Capella & Orchestra of Russia; Valery Polyansky / Gala Russia - Greece. Carnaval. A story of the sea
Used drive : PLEXTOR DVDR PX-612U Adapter: 2 ID: 0
Read mode : SecureUtilize accurate stream : YesDefeat audio cache : YesMake use of C2 pointers : No
Read offset correction : 6Overread into Lead-In and Lead-Out : NoFill up missing offset samples with silence : YesDelete leading and trailing silent blocks : NoNull samples used in CRC calculations : YesUsed interface : Native Win32 interface for Win NT & 2000
Used output format : User Defined EncoderSelected bitrate : 128 kBit/sQuality : HighAdd ID3 tag : NoCommand line compressor : C:\Program Files (x86)\Exact Audio Copy\Flac\flac.exeAdditional command line options : -V -8 -T "Date=%year%" -T "Genre=%genre%" %source%
TOC of the extracted CD
Track | Start | Length | Start sector | End sector --------------------------------------------------------- 1 | 0:00.00 | 1:24.52 | 0 | 6351 2 | 1:24.52 | 2:36.55 | 6352 | 18106 3 | 4:01.32 | 5:05.63 | 18107 | 41044 4 | 9:07.20 | 4:56.60 | 41045 | 63304 5 | 14:04.05 | 1:02.65 | 63305 | 68019 6 | 15:06.70 | 0:58.60 | 68020 | 72429 7 | 16:05.55 | 2:03.24 | 72430 | 81678 8 | 18:09.04 | 2:01.59 | 81679 | 90812 9 | 20:10.63 | 6:18.30 | 90813 | 119192 10 | 26:29.18 | 6:44.01 | 119193 | 149493 11 | 33:13.19 | 11:58.66 | 149494 | 203409 12 | 45:12.10 | 8:36.10 | 203410 | 242119 13 | 53:48.20 | 9:50.22 | 242120 | 286391 14 | 63:38.42 | 9:34.57 | 286392 | 329498
Range status and errors
Selected range
Filename D:\Gala Russia - Greece. Theodorakis, Arapis (2008).wav
Peak level 100.0 % Extraction speed 3.3 X Range quality 100.0 % Test CRC 7861CC07 Copy CRC 7861CC07 Copy OK
No errors occurred
AccurateRip summary
Track 1 accurately ripped (confidence 2) [01B3399A] (AR v2)Track 2 accurately ripped (confidence 2) [269D30D0] (AR v2)Track 3 accurately ripped (confidence 2) [2E5A67DB] (AR v2)Track 4 accurately ripped (confidence 2) [38C421AC] (AR v2)Track 5 accurately ripped (confidence 2) [384F96A5] (AR v2)Track 6 accurately ripped (confidence 2) [6150D8E8] (AR v2)Track 7 accurately ripped (confidence 2) [E22F8258] (AR v2)Track 8 accurately ripped (confidence 2) [8497CC38] (AR v2)Track 9 accurately ripped (confidence 2) [4E871FE2] (AR v2)Track 10 accurately ripped (confidence 2) [D954C84C] (AR v2)Track 11 accurately ripped (confidence 2) [F9345F0C] (AR v2)Track 12 accurately ripped (confidence 2) [3BA54333] (AR v2)Track 13 accurately ripped (confidence 2) [D371A015] (AR v2)Track 14 accurately ripped (confidence 2) [60157021] (AR v2)
All tracks accurately ripped
End of status report
==== Log checksum 3830DDC2C95DCEDCFF4EC7E2EFC8136140BAD185D0CA8F41630470058AC079E6 ====

Содержание индексной карты (.CUE)

REM GENRE ClassicalREM DATE 2008REM DISCID C011290EREM COMMENT "ExactAudioCopy v1.0b3"PERFORMER "State Symphony Capella & Orchestra of Russia; Valery Polyansky"TITLE "Gala Russia - Greece. Carnaval. A story of the sea"FILE "Gala Russia - Greece. Theodorakis, Arapis (2008).flac" WAVE TRACK 01 AUDIO TITLE "Mikis Theodorakis: Ballet Suite Carnaval, Introduction" PERFORMER "State Symphony Capella & Orchestra of Russia; Valery Polyansky" INDEX 01 00:00:00 TRACK 02 AUDIO TITLE "I. Men's Dance" PERFORMER "State Symphony Capella & Orchestra of Russia; Valery Polyansky" INDEX 01 01:24:52 TRACK 03 AUDIO TITLE "II. Great Dance" PERFORMER "State Symphony Capella & Orchestra of Russia; Valery Polyansky" INDEX 01 04:01:32 TRACK 04 AUDIO TITLE "III. Love Dance" PERFORMER "State Symphony Capella & Orchestra of Russia; Valery Polyansky" INDEX 01 09:07:20 TRACK 05 AUDIO TITLE "IV. Divertimento" PERFORMER "State Symphony Capella & Orchestra of Russia; Valery Polyansky" INDEX 01 14:04:05 TRACK 06 AUDIO TITLE "V. Three Carnaval Dances, Maypole" PERFORMER "State Symphony Capella & Orchestra of Russia; Valery Polyansky" INDEX 01 15:06:70 TRACK 07 AUDIO TITLE "Pony" PERFORMER "State Symphony Capella & Orchestra of Russia; Valery Polyansky" INDEX 01 16:05:55 TRACK 08 AUDIO TITLE "Camel" PERFORMER "State Symphony Capella & Orchestra of Russia; Valery Polyansky" INDEX 01 18:09:04 TRACK 09 AUDIO TITLE "VI. The Girl's Dance" PERFORMER "State Symphony Capella & Orchestra of Russia; Valery Polyansky" INDEX 01 20:10:63 TRACK 10 AUDIO TITLE "VII. Finale" PERFORMER "State Symphony Capella & Orchestra of Russia; Valery Polyansky" INDEX 01 26:29:18 TRACK 11 AUDIO TITLE "Dimitri Arapis: Symphony No.3, A story of the sea, 1st MOVEMENT In the waves" PERFORMER "State Symphony Capella & Orchestra of Russia; Valery Polyansky" INDEX 00 33:11:19 INDEX 01 33:13:19 TRACK 12 AUDIO TITLE "2nd MOVEMENT Theme and sea" PERFORMER "State Symphony Capella & Orchestra of Russia; Valery Polyansky" INDEX 01 45:12:10 TRACK 13 AUDIO TITLE "3rd MOVEMENT Depths of harmonia" PERFORMER "State Symphony Capella & Orchestra of Russia; Valery Polyansky" INDEX 01 53:48:20 TRACK 14 AUDIO TITLE "4th MOVEMENT Chaos and conception" PERFORMER "State Symphony Capella & Orchestra of Russia; Valery Polyansky" INDEX 01 63:38:42

Спектрограмма

Лог проверки качества

-----------------------
DON'T MODIFY THIS FILE
-----------------------
PERFORMER: auCDtect Task Manager, ver. 1.6.0 RC1 build 1.6.0.1
Copyright (c) 2008-2010 y-soft. All rights reserved
http://y-soft.org
ANALYZER: auCDtect: CD records authenticity detector, version 0.8.2
Copyright (c) 2004 Oleg Berngardt. All rights reserved.
Copyright (c) 2004 Alexander Djourik. All rights reserved.
FILE: Gala Russia - Greece. Theodorakis, Arapis (2008).flac
Size: 390058455 Hash: 8681EBB4F937B686EF1108D4B812CB6C Accuracy: -m0
Conclusion: CDDA 100%
Signature: 90F990B6C0B65F1E5CC0D376283252ADCEBEABBB

Front, back, CD, matrix




Показать сообщения:    

Текущее время: 03-Дек 12:37

Часовой пояс: UTC + 3


Вы не можете начинать темы
Вы не можете отвечать на сообщения
Вы не можете редактировать свои сообщения
Вы не можете удалять свои сообщения
Вы не можете голосовать в опросах
Вы не можете прикреплять файлы к сообщениям
Вы не можете скачивать файлы