(Orchestral) Мясковский - Симфонии №№5 и 9 (BBC Philharmonic - Downes) - 1993, FLAC (image+.cue) lossless


 

[Цитировать]

Nikolai
MIASKOVSKY
Symphonies Nos.5 and 9
-Жанр: Orchestral
Страна-производитель диска: Germany
Год издания диска: 1993
Издатель (лейбл): Marco Polo
Дата записи: 1992
Аудиокодек: FLAC
Тип рипа: image+.cue
Битрейт аудио: lossless
Продолжительность: 72'37''
Источник: собственный рип
Наличие сканов в содержимом раздачи: да
Треклист:
[01] Симфония №5: I. Allegretto amabile
[02] II. Lento - Andante
[03] III. Allegro burlando
[04] IV. Allegro risoluto
[05] Симфония №9: I. Andante sostenuto - Moderato malinconico
[06] II. Presto
[07] III. Lento molto
[08] IV. Allegro con grazia
Исполнители:
BBC Philharmonic - Sir Edward Downes-

Лог создания рипа

Exact Audio Copy V1.0 beta 3 from 29. August 2011
EAC extraction logfile from 26. October 2014, 17:32
BBC Philharmonic Orchestra - Edward Downes / Myaskovsky - Symphonies 5 and 9
Used drive : TSSTcorpCDDVDW SN-208BB Adapter: 0 ID: 1
Read mode : SecureUtilize accurate stream : YesDefeat audio cache : YesMake use of C2 pointers : No
Read offset correction : 6Overread into Lead-In and Lead-Out : NoFill up missing offset samples with silence : YesDelete leading and trailing silent blocks : NoNull samples used in CRC calculations : YesUsed interface : Native Win32 interface for Win NT & 2000
Used output format : User Defined EncoderSelected bitrate : 896 kBit/sQuality : HighAdd ID3 tag : NoCommand line compressor : C:\Program Files (x86)\FLAC\flac.exeAdditional command line options : -T "COMMENT=rip by el coronel" -8 -V %source%
TOC of the extracted CD
Track | Start | Length | Start sector | End sector --------------------------------------------------------- 1 | 0:00.00 | 11:15.25 | 0 | 50649 2 | 11:15.25 | 11:03.00 | 50650 | 100374 3 | 22:18.25 | 4:06.00 | 100375 | 118824 4 | 26:24.25 | 9:28.00 | 118825 | 161424 5 | 35:52.25 | 10:26.00 | 161425 | 208374 6 | 46:18.25 | 7:09.00 | 208375 | 240549 7 | 53:27.25 | 9:00.00 | 240550 | 281049 8 | 62:27.25 | 10:11.25 | 281050 | 326899
Range status and errors
Selected range
Filename K:\Music\Myaskovsky - Symphonies Nos. 5 and 9 (Downes)\CDImage.wav
Peak level 100.0 % Extraction speed 3.5 X Range quality 100.0 % Test CRC 5B300DD9 Copy CRC 5B300DD9 Copy OK
No errors occurred
AccurateRip summary
Track 1 accurately ripped (confidence 2) [631AE511] (AR v2)Track 2 accurately ripped (confidence 2) [F8F44304] (AR v2)Track 3 accurately ripped (confidence 2) [839F4E8F] (AR v2)Track 4 accurately ripped (confidence 2) [C636E555] (AR v2)Track 5 accurately ripped (confidence 2) [43777C61] (AR v2)Track 6 accurately ripped (confidence 2) [0ED4E2B6] (AR v2)Track 7 accurately ripped (confidence 2) [1C8C7B6E] (AR v2)Track 8 accurately ripped (confidence 3) [94BE9B25] (AR v2)
All tracks accurately ripped
End of status report
==== Log checksum 8D315AE8341E1D47256C07DD0E992E8F03F700D41DC5CC039614D9F3CBA875F0 ====

Содержание индексной карты (.CUE)

REM GENRE ClassicalREM DATE 1992REM DISCID 74110608REM COMMENT "ExactAudioCopy v1.0b3"PERFORMER "BBC Philharmonic Orchestra - Edward Downes"TITLE "Myaskovsky - Symphonies 5 and 9"FILE "CDImage.flac" WAVE TRACK 01 AUDIO TITLE "Symphony No.5: I. Allegretto amabile" PERFORMER "BBC Philharmonic Orchestra - Edward Downes" INDEX 01 00:00:00 TRACK 02 AUDIO TITLE "II. Lento - Andante" PERFORMER "BBC Philharmonic Orchestra - Edward Downes" INDEX 00 11:10:70 INDEX 01 11:15:25 TRACK 03 AUDIO TITLE "III. Allegro burlando" PERFORMER "BBC Philharmonic Orchestra - Edward Downes" INDEX 00 22:16:60 INDEX 01 22:18:25 TRACK 04 AUDIO TITLE "IV. Allegro risoluto" PERFORMER "BBC Philharmonic Orchestra - Edward Downes" INDEX 00 26:21:02 INDEX 01 26:24:25 TRACK 05 AUDIO TITLE "Symphony No.9: I. Andante sostenuto - Moderato malinconico" PERFORMER "BBC Philharmonic Orchestra - Edward Downes" INDEX 00 35:43:12 INDEX 01 35:52:25 TRACK 06 AUDIO TITLE "II. Presto" PERFORMER "BBC Philharmonic Orchestra - Edward Downes" INDEX 00 46:17:07 INDEX 01 46:18:25 TRACK 07 AUDIO TITLE "III. Lento molto" PERFORMER "BBC Philharmonic Orchestra - Edward Downes" INDEX 00 53:23:40 INDEX 01 53:27:25 TRACK 08 AUDIO TITLE "IV. Allegro con grazia" PERFORMER "BBC Philharmonic Orchestra - Edward Downes" INDEX 00 62:22:55 INDEX 01 62:27:25
-Доп. информация: Пятая и Девятая симфонии Мясковского в исполнении крупного специалиста по русской музыке сэра Эдварда Доунса.-



Показать сообщения:    

Текущее время: 10-Дек 02:11

Часовой пояс: UTC + 3


Вы не можете начинать темы
Вы не можете отвечать на сообщения
Вы не можете редактировать свои сообщения
Вы не можете удалять свои сообщения
Вы не можете голосовать в опросах
Вы не можете прикреплять файлы к сообщениям
Вы не можете скачивать файлы