(Classical / Orchestral) Robert Schumann - Ouverturen «Genoveva», «Die Braut von Messina», «Julius Caesar», «Hermann und Dorothea», «Faust», «Manfred» • Ouverture, Scherzo und Finale (Polish NRSO, Johannes Wildner) - 1993, FLAC (image+.cue), lossless


 

[Цитировать]

Schumann - Overtures, Overture, Scherzo & Finale - Polish NRSO, Johannes Wildner
Жанр: Orchestral Music
Страна-производитель диска: Germany
Год издания диска: 1993
Издатель (лейбл): Naxos
Номер по каталогу: 8.550608
Дата записи: 1992
Аудиокодек: FLAC
Тип рипа: image+.cue
Битрейт аудио: lossless
Продолжительность: 70:23
Источник: собственный рип
Наличие сканов в содержимом раздачи: да
Треклист:
[01] Overture, Scherzo & Finale op. 52
[02] Overture from Genoveva, op. 81
[03] Bride of Messina, Overture op. 100
[04] Julius Caesar, Overture op. 128
[05] Hermann and Dorothea, Overture op. 136
[06] Overture from Faust
[07] Overture from Manfred op. 115
Исполнители:
Polish National Radio Symphony Orchestra, Johannes Wildner

Лог создания рипа

Exact Audio Copy V1.0 beta 3 from 29. August 2011
EAC extraction logfile from 23. June 2013, 9:36
Polish National Radio Symphony Orchestra, Johannes Wildner / Schumann - Overtures Manfred, op.115 - Julius Caesar, op.128 - The Bride of Messina, op.110 - Overture, Scherzo & Finale, op.52 - Wildner-PNRSO
Used drive : SlimtypeDVD A DS8A5SH Adapter: 0 ID: 1
Read mode : SecureUtilize accurate stream : YesDefeat audio cache : YesMake use of C2 pointers : No
Read offset correction : 6Overread into Lead-In and Lead-Out : NoFill up missing offset samples with silence : YesDelete leading and trailing silent blocks : NoNull samples used in CRC calculations : YesUsed interface : Native Win32 interface for Win NT & 2000
Used output format : User Defined EncoderSelected bitrate : 32 kBit/sQuality : HighAdd ID3 tag : NoCommand line compressor : C:\Program Files\Exact Audio Copy\Flac\flac.exeAdditional command line options : -8 -V -T "ARTIST=%artist%" -T "TITLE=%title%" -T "ALBUM=%albumtitle%" -T "DATE=%year%" -T "TRACKNUMBER=%tracknr%" -T "GENRE=%genre%" -T "PERFORMER=%albuminterpret%" -T "COMPOSER=%composer%" %haslyrics%--tag-from-file=LYRICS="%lyricsfile%"%haslyrics% -T "ALBUMARTIST=%albumartist%" -T "DISCNUMBER=%cdnumber%" -T "TOTALDISCS=%totalcds%" -T "TOTALTRACKS=%numtracks%" -T "COMMENT=%comment%" %source% -o %dest%
TOC of the extracted CD
Track | Start | Length | Start sector | End sector --------------------------------------------------------- 1 | 0:00.00 | 17:21.25 | 0 | 78099 2 | 17:21.25 | 8:13.00 | 78100 | 115074 3 | 25:34.25 | 8:09.00 | 115075 | 151749 4 | 33:43.25 | 9:37.00 | 151750 | 195024 5 | 43:20.25 | 8:24.00 | 195025 | 232824 6 | 51:44.25 | 8:57.00 | 232825 | 273099 7 | 60:41.25 | 10:48.62 | 273100 | 321761
Range status and errors
Selected range
Filename C:\Users\BIANCA\Desktop\file scuola\Polish National Radio Symphony Orchestra, Johannes Wildner - Schumann - Overtures Manfred, op.115 - Julius Caesar, op.128 - The Bride of Messina, op.110 - Overture, Scherzo & Finale, op.52 - Wildner-PNRSO.wa
Peak level 99.9 % Extraction speed 2.1 X Range quality 100.0 % Test CRC 3A918D38 Copy CRC 3A918D38 Copy OK
No errors occurred
AccurateRip summary
Track 1 accurately ripped (confidence 2) [B44B0361] (AR v1)Track 2 accurately ripped (confidence 2) [CFD7BE18] (AR v1)Track 3 accurately ripped (confidence 2) [BDC89062] (AR v1)Track 4 accurately ripped (confidence 2) [31A84E89] (AR v1)Track 5 accurately ripped (confidence 2) [C49F24E1] (AR v1)Track 6 accurately ripped (confidence 2) [B93ADD0B] (AR v1)Track 7 cannot be verified as accurate (confidence 2) [6A6F4C03], AccurateRip returned [448CBEFE] (AR v2)
6 Traccia(e) estratta accuratamente 1 Traccia(e) non possono essere verificate come accurate
Some tracks could not be verified as accurate
End of status report
==== Log checksum 306AA6C950D5F0E61863B0742E589F1AA24C21B53DCE908D78600F748A128D56 ====



Показать сообщения:    

Текущее время: 20-Янв 16:55

Часовой пояс: UTC + 3


Вы не можете начинать темы
Вы не можете отвечать на сообщения
Вы не можете редактировать свои сообщения
Вы не можете удалять свои сообщения
Вы не можете голосовать в опросах
Вы не можете прикреплять файлы к сообщениям
Вы не можете скачивать файлы