(Classical, period) Иоганн Хартман (Гартман) Старший – Четыре симфонии / Johann Ernst Hartmann – Complete symphonies (Lars Ulrik Mortensen) - 2004, FLAC (image+.cue) lossless


 

[Цитировать]

Иоганн Хартман (Гартман) Старший – Четыре симфонии / Johann Ernst Hartmann – Complete symphonies (Lars Ulrik Mortensen)
Жанр: Classical, period
Страна-производитель диска: Германия
Год издания диска: 2004
Издатель (лейбл): cpo
Номер по каталогу: 777 060-2
Дата записи: 26 — 27 августа (№ 3 и 4), 25 — 26 октября (№ 1 и 2) 2003 г., Копенгаген.
Аудиокодек: FLAC
Тип рипа: image+.cue
Битрейт аудио: lossless
Продолжительность: 00:51:25
Источник: odeonmusic
Наличие сканов в содержимом раздачи: да
Треклист:
Иоганн (Эрнст) Хартман (Иоганн Гартман; 1726 — 1793).
Полное собрание сохранившихся симфоний.
Симфония [№ 1] D-dur (опубл. 1770 как № 7).
01. I. Allegro [04:04].
02. II. Andantino [03:02].
03. III. Menuetto. — Trio. — Menuetto da capo [04:48].
04. IV. Presto [02:27].
Симфония № 2 G-dur (1769, финал утрачен?).
05. I. Allegro [04:54].
06. II. Molto andante [05:35].
07. III. Tempo di Menuet [03:50].
Симфония [№ 3] D-dur для струнных (1869/1870).
08. I. Allegro moderato [04:14].
09. II. Andantino [02:30].
10. III. Allegro [02:05].
Симфония [№ 4] G-dur для струнных (1869/1870).
11. I. Allegro [05:28].
12. II. Andante [03:26].
13. III. Allegro [04:56].
Исполнители:
Concerto Copenhagen (на инструментах эпохи).
Lars Ulrik Mortensen (клавесин и дирижер).

Лог создания рипа

Exact Audio Copy V1.0 beta 3 from 29. August 2011
EAC extraction logfile from 9. October 2012, 11:27
Concerto Copenhagen / J.Hartmann - Symphonies - Mortensen
Used drive : TSSTcorpCDDVDW TS-L633M Adapter: 1 ID: 0
Read mode : SecureUtilize accurate stream : YesDefeat audio cache : YesMake use of C2 pointers : No
Read offset correction : 6Overread into Lead-In and Lead-Out : NoFill up missing offset samples with silence : YesDelete leading and trailing silent blocks : NoNull samples used in CRC calculations : YesUsed interface : Native Win32 interface for Win NT & 2000
Used output format : User Defined EncoderSelected bitrate : 320 kBit/sQuality : HighAdd ID3 tag : NoCommand line compressor : C:\Program Files\Exact Audio Copy\Flac\flac.exeAdditional command line options : -8 -V -T "TITLE=%title%" -T "ARTIST=%artist%" -T "ALBUMARTIST=%albumartist%" -T "ALBUM=%albumtitle%" -T "DATE=%year%" -T "TRACKNUMBER=%tracknr%" -T "TRACKTOTAL=%numtracks%" -T "GENRE=%genre%" -T "COMMENT=%comment%" -T "PERFORMER=%albuminterpret%" -T "COMPOSER=%composer%" %source% -o %dest%
TOC of the extracted CD
Track | Start | Length | Start sector | End sector --------------------------------------------------------- 1 | 0:00.00 | 4:04.42 | 0 | 18341 2 | 4:04.42 | 3:02.40 | 18342 | 32031 3 | 7:07.07 | 4:48.66 | 32032 | 53697 4 | 11:55.73 | 2:27.12 | 53698 | 64734 5 | 14:23.10 | 4:54.21 | 64735 | 86805 6 | 19:17.31 | 5:35.73 | 86806 | 112003 7 | 24:53.29 | 3:50.54 | 112004 | 129307 8 | 28:44.08 | 4:14.64 | 129308 | 148421 9 | 32:58.72 | 2:30.03 | 148422 | 159674 10 | 35:29.00 | 2:05.30 | 159675 | 169079 11 | 37:34.30 | 5:28.02 | 169080 | 193681 12 | 43:02.32 | 3:26.06 | 193682 | 209137 13 | 46:28.38 | 4:56.37 | 209138 | 231374
Range status and errors
Selected range
Filename C:\Users\JS\Desktop\J.Hartmann - Symphonies - Mortensen\J.Hartmann - Symphonies - Mortensen.wav
Peak level 96.6 % Extraction speed 2.7 X Range quality 100.0 % Test CRC 8DA77E90 Copy CRC 8DA77E90 Copy OK
No errors occurred
AccurateRip summary
Track 1 accurately ripped (confidence 3) [7313B515] (AR v1)Track 2 accurately ripped (confidence 3) [068F61A6] (AR v1)Track 3 accurately ripped (confidence 3) [AF3B059A] (AR v1)Track 4 accurately ripped (confidence 3) [9737C7BE] (AR v1)Track 5 accurately ripped (confidence 3) [EE67621C] (AR v1)Track 6 accurately ripped (confidence 3) [4FAB6FF8] (AR v1)Track 7 accurately ripped (confidence 3) [90133EFA] (AR v1)Track 8 accurately ripped (confidence 3) [2D18497C] (AR v1)Track 9 accurately ripped (confidence 3) [3BC00AA0] (AR v1)Track 10 accurately ripped (confidence 3) [ECE902F9] (AR v1)Track 11 accurately ripped (confidence 2) [9EC62F31] (AR v1)Track 12 accurately ripped (confidence 3) [7D856FF6] (AR v1)Track 13 accurately ripped (confidence 3) [C5BDF4B3] (AR v1)
All tracks accurately ripped
End of status report

Содержание индексной карты (.CUE)

REM GENRE ClassicalREM DATE 2003REM DISCID BF0C0D0DREM COMMENT "ExactAudioCopy v1.0b3"PERFORMER "Concerto Copenhagen & Lars Ulrik Mortensen"TITLE "Johann Ernst Hartmann – Symphonies – Mortensen"FILE "Johann Ernst Hartmann – Symphonies – Mortensen.flac" WAVE TRACK 01 AUDIO TITLE "Symphony No. 1 in D major - I. Allegro" PERFORMER "Concerto Copenhagen & Lars Ulrik Mortensen" INDEX 01 00:00:00 TRACK 02 AUDIO TITLE "Symphony No. 1 in D major - II. Andantino" PERFORMER "Concerto Copenhagen & Lars Ulrik Mortensen" INDEX 01 04:04:42 TRACK 03 AUDIO TITLE "Symphony No. 1 in D major - III. Menuetto" PERFORMER "Concerto Copenhagen & Lars Ulrik Mortensen" INDEX 01 07:07:07 TRACK 04 AUDIO TITLE "Symphony No. 1 in D major - IV. Presto" PERFORMER "Concerto Copenhagen & Lars Ulrik Mortensen" INDEX 01 11:55:73 TRACK 05 AUDIO TITLE "Symphony No. 2 in G major - I. Allegro" PERFORMER "Concerto Copenhagen & Lars Ulrik Mortensen" INDEX 01 14:23:10 TRACK 06 AUDIO TITLE "Symphony No. 2 in G major - II. Molto andante" PERFORMER "Concerto Copenhagen & Lars Ulrik Mortensen" INDEX 01 19:17:31 TRACK 07 AUDIO TITLE "Symphony No. 2 in G major - III. Tempo di Menuet" PERFORMER "Concerto Copenhagen & Lars Ulrik Mortensen" INDEX 01 24:53:29 TRACK 08 AUDIO TITLE "Symphony No. 3 in D major - I. Allegro moderato" PERFORMER "Concerto Copenhagen & Lars Ulrik Mortensen" INDEX 01 28:44:08 TRACK 09 AUDIO TITLE "Symphony No. 3 in D major - II. Andantino" PERFORMER "Concerto Copenhagen & Lars Ulrik Mortensen" INDEX 01 32:58:72 TRACK 10 AUDIO TITLE "Symphony No. 3 in D major - III. Allegro" PERFORMER "Concerto Copenhagen & Lars Ulrik Mortensen" INDEX 01 35:29:00 TRACK 11 AUDIO TITLE "Symphony No. 4 in G major - I. Allegro" PERFORMER "Concerto Copenhagen & Lars Ulrik Mortensen" INDEX 01 37:34:30 TRACK 12 AUDIO TITLE "Symphony No. 4 in G major - II. Andante" PERFORMER "Concerto Copenhagen & Lars Ulrik Mortensen" INDEX 01 43:02:32 TRACK 13 AUDIO TITLE "Symphony No. 4 in G major - III. Allegro" PERFORMER "Concerto Copenhagen & Lars Ulrik Mortensen" INDEX 01 46:28:38

Вариант индексной карты (.CUE) с выставленными зазорами

REM GENRE ClassicalREM DATE 2003REM DISCID BF0C0D0DREM COMMENT "ExactAudioCopy v1.0b3"PERFORMER "Concerto Copenhagen & Lars Ulrik Mortensen"TITLE "Johann Ernst Hartmann – Symphonies – Mortensen"FILE "Johann Ernst Hartmann – Symphonies – Mortensen.flac" WAVE TRACK 01 AUDIO TITLE "Symphony No. 1 in D major - I. Allegro" PERFORMER "Concerto Copenhagen & Lars Ulrik Mortensen" INDEX 00 00:00:00 INDEX 01 00:03:27 TRACK 02 AUDIO TITLE "Symphony No. 1 in D major - II. Andantino" PERFORMER "Concerto Copenhagen & Lars Ulrik Mortensen" INDEX 00 04:02:72 INDEX 01 04:04:42 TRACK 03 AUDIO TITLE "Symphony No. 1 in D major - III. Menuetto" PERFORMER "Concerto Copenhagen & Lars Ulrik Mortensen" INDEX 01 07:07:07 TRACK 04 AUDIO TITLE "Symphony No. 1 in D major - IV. Presto" PERFORMER "Concerto Copenhagen & Lars Ulrik Mortensen" INDEX 01 11:56:47 TRACK 05 AUDIO TITLE "Symphony No. 2 in G major - I. Allegro" PERFORMER "Concerto Copenhagen & Lars Ulrik Mortensen" INDEX 00 14:19:71 INDEX 01 14:24:18 TRACK 06 AUDIO TITLE "Symphony No. 2 in G major - II. Molto andante" PERFORMER "Concerto Copenhagen & Lars Ulrik Mortensen" INDEX 00 19:15:09 INDEX 01 19:17:64 TRACK 07 AUDIO TITLE "Symphony No. 2 in G major - III. Tempo di Menuet" PERFORMER "Concerto Copenhagen & Lars Ulrik Mortensen" INDEX 00 24:52:07 INDEX 01 24:53:62 TRACK 08 AUDIO TITLE "Symphony No. 3 in D major - I. Allegro moderato" PERFORMER "Concerto Copenhagen & Lars Ulrik Mortensen" INDEX 00 28:39:72 INDEX 01 28:45:00 TRACK 09 AUDIO TITLE "Symphony No. 3 in D major - II. Andantino" PERFORMER "Concerto Copenhagen & Lars Ulrik Mortensen" INDEX 00 32:56:67 INDEX 01 32:59:28 TRACK 10 AUDIO TITLE "Symphony No. 3 in D major - III. Allegro" PERFORMER "Concerto Copenhagen & Lars Ulrik Mortensen" INDEX 01 35:29:58 TRACK 11 AUDIO TITLE "Symphony No. 4 in G major - I. Allegro" PERFORMER "Concerto Copenhagen & Lars Ulrik Mortensen" INDEX 00 37:30:74 INDEX 01 37:35:18 TRACK 12 AUDIO TITLE "Symphony No. 4 in G major - II. Andante" PERFORMER "Concerto Copenhagen & Lars Ulrik Mortensen" INDEX 00 43:00:18 INDEX 01 43:02:32 TRACK 13 AUDIO TITLE "Symphony No. 4 in G major - III. Allegro" PERFORMER "Concerto Copenhagen & Lars Ulrik Mortensen" INDEX 01 46:28:38 INDEX 02 51:17:48
-Этот диск в mp (320 kbps).



Показать сообщения:    

Текущее время: 09-Дек 01:06

Часовой пояс: UTC + 3


Вы не можете начинать темы
Вы не можете отвечать на сообщения
Вы не можете редактировать свои сообщения
Вы не можете удалять свои сообщения
Вы не можете голосовать в опросах
Вы не можете прикреплять файлы к сообщениям
Вы не можете скачивать файлы