(Classical) Marcel Landowski - Le Fantome de l'Opera; Madame Carlotta; Le Jeune Fille; Le Fantome; Un premier baiser; Les Rats; La Messe (Marc Soustr,Orchestre Philharmonique des Pays de Loire; David Wilson-Johnson) - 1982, FLAC (image+.cue) los


 

[Цитировать]

Marcel Landowski (1915-1999) - Le Fantome de l'Opera
Жанр: Classical
Год издания диска: 1982
Издатель (лейбл): Erato
Номер по каталогу: 69591
Дата записи:
Аудиокодек: FLAC
Тип рипа: image+.cue
Битрейт аудио: lossless
Продолжительность: 00:55:47
Источник: скачано из сети
Наличие сканов в содержимом раздачи: да
Треклист:
01. L'Opera aux premieres heures du matin (05:06)
02. Madame Carlotta danse a desrocher le lustre ce soir! (03:18)
03. Le Jeune Fille traverse le miroir (08:18)
04. Le Fantome conduit le bal (09:33)
05. Un premier baiser? Horreur... C'est un monstre! (06:30)
06. Les Rats (09:01)
07. La Messe de marriage ou la danse des morts (14:01)
Исполнители:
David Wilson-Johnson - Baritone (Vocal)
Michel Bouquet
Orchestre Philharmonique des Pays de Loire
Marc Soustrot

LOG EAC

Exact Audio Copy V1.0 beta 3 from 29. August 2011
EAC extraction logfile from 13. January 2012, 0:29
Marcel Landowski / Le Fantome de l'Opera (excerpts)
Used drive : TSSTcorpCD/DVDW TS-H552B Adapter: 3 ID: 1
Read mode : SecureUtilize accurate stream : YesDefeat audio cache : NoMake use of C2 pointers : Yes
Read offset correction : 12Overread into Lead-In and Lead-Out : NoFill up missing offset samples with silence : YesDelete leading and trailing silent blocks : NoNull samples used in CRC calculations : YesUsed interface : Native Win32 interface for Win NT & 2000
Used output format : User Defined EncoderSelected bitrate : 896 kBit/sQuality : HighAdd ID3 tag : NoCommand line compressor : C:\Program Files (x86)\Exact Audio Copy\Flac\flac.exeAdditional command line options : -V -0 -T "artist=%artist%" -T "title=%title%" -T "album=%albumtitle%" -T "date=%year%" -T "tracknumber=%tracknr%" -T "genre=%genre%" %source%
TOC of the extracted CD
Track | Start | Length | Start sector | End sector --------------------------------------------------------- 1 | 0:00.00 | 5:06.60 | 0 | 23009 2 | 5:06.60 | 3:18.30 | 23010 | 37889 3 | 8:25.15 | 8:18.30 | 37890 | 75269 4 | 16:43.45 | 9:33.17 | 75270 | 118261 5 | 26:16.62 | 6:30.05 | 118262 | 147516 6 | 32:46.67 | 9:01.55 | 147517 | 188146 7 | 41:48.47 | 14:01.48 | 188147 | 251269
Range status and errors
Selected range
Filename F:\Musique\Landowski\Le_Fantome\Le Fantome de l'Opera (excerpts).wav
Peak level 83.4 % Extraction speed 9.3 X Range quality 100.0 % Test CRC 451EE902 Copy CRC 451EE902 Copy OK
No errors occurred
AccurateRip summary
Track 1 accurately ripped (confidence 1) [F101F81B] (AR v2)Track 2 accurately ripped (confidence 1) [0F0F2952] (AR v2)Track 3 accurately ripped (confidence 1) [9CF98ED5] (AR v2)Track 4 accurately ripped (confidence 1) [D50997BB] (AR v2)Track 5 accurately ripped (confidence 1) [D941AB39] (AR v2)Track 6 accurately ripped (confidence 1) [8458406D] (AR v2)Track 7 accurately ripped (confidence 1) [130DB405] (AR v2)
All tracks accurately ripped
End of status report
==== Log checksum 751171F08D0782CDFD1A62B3B7049A8E976B853F23750E3D3885C79A67BF6A0B ====
Marcel Landowski - Piano Concerto No. 2 - Ondes Martenot Concerto - Trompette Concerto - 1978
Marcel Landowski - Un Enfant Appele, La Prison - 1984



Показать сообщения:    

Текущее время: 10-Дек 17:44

Часовой пояс: UTC + 3


Вы не можете начинать темы
Вы не можете отвечать на сообщения
Вы не можете редактировать свои сообщения
Вы не можете удалять свои сообщения
Вы не можете голосовать в опросах
Вы не можете прикреплять файлы к сообщениям
Вы не можете скачивать файлы