(Symphonie) Sergei Prokofiev (Сергей Прокофьев) • The Symphonies • Walter Weller • London Philharmonic Orchestra - FLAC (tracks+.cue) lossless


 

[Цитировать]

Сергей Прокофьев
The Symphonies
Walter Weller
London Symphony Orchestra
London Philharmonic Orchestra
Жанр: Symphonie
Страна-производитель диска: Germany
Год издания диска: 09/15/1991
Издатель (лейбл): Decca
Номер по каталогу: 430782
Дата записи: 1977-78
Аудиокодек: FLAC
Тип рипа: tracks+.cue
Битрейт аудио: lossless
Продолжительность: 4 h 50 min
Источник: собственный рип
Наличие сканов в содержимом раздачи: нет
Треклист:
•Disc 1•
Symphony no 1 in D major, Op. 25 "Classical"
Russian Overture, Op. 72
Symphony no 5 in B flat major, Op. 100
•Disc 2•
Symphony no 2 in D minor, Op. 40
Symphony no 3 in C minor, Op. 44
•Disc 3•
Symphony no 4 in C major, Op. 112
Symphony no 7 in C sharp minor, Op. 131*
•Disc 4•
Symphony no 6 in E flat minor, Op. 111
Scythian Suite, Op. 20
Исполнители:
Conductor: Walter Weller
Orchestra/Ensemble: London Symphony Orchestra*, London Philharmonic Orchestra

Отчет EACDisc 1

Exact Audio Copy V1.0 beta 3 from 29. August 2011
EAC extraction logfile from 7. December 2014, 19:43
London Symphony Orchestra - Walter Weller / The Symphonies - CD-1
Used drive : PIONEER DVD-RW DVRTD11RS Adapter: 3 ID: 0
Read mode : SecureUtilize accurate stream : YesDefeat audio cache : YesMake use of C2 pointers : No
Read offset correction : 6Overread into Lead-In and Lead-Out : NoFill up missing offset samples with silence : YesDelete leading and trailing silent blocks : NoNull samples used in CRC calculations : YesUsed interface : Native Win32 interface for Win NT & 2000Gap handling : Appended to previous track
Used output format : User Defined EncoderSelected bitrate : 128 kBit/sQuality : HighAdd ID3 tag : NoCommand line compressor : C:\Program Files\Exact Audio Copy\Flac\flac.exe
TOC of the extracted CD
Track | Start | Length | Start sector | End sector --------------------------------------------------------- 1 | 0:00.00 | 4:12.60 | 0 | 18959 2 | 4:12.60 | 4:23.22 | 18960 | 38706 3 | 8:36.07 | 1:37.45 | 38707 | 46026 4 | 10:13.52 | 4:01.38 | 46027 | 64139 5 | 14:15.15 | 13:31.17 | 64140 | 124981 6 | 27:46.32 | 13:56.70 | 124982 | 187751 7 | 41:43.27 | 9:01.28 | 187752 | 228354 8 | 50:44.55 | 14:40.72 | 228355 | 294426 9 | 65:25.52 | 9:20.65 | 294427 | 336491
Track 1
Filename C:\Users\user\Desktop\Prokofiev weller\01 - London Symphony Orchestra - Walter Weller - Symphony No. 1 in D major, op.25 ''Classical'' - 1. Allegro.wav
Pre-gap length 0:00:02.00
Peak level 86.4 % Extraction speed 3.9 X Track quality 100.0 % Test CRC 5F726DDF Copy CRC 5F726DDF Copy OK
Track 2
Filename C:\Users\user\Desktop\Prokofiev weller\02 - London Symphony Orchestra - Walter Weller - Symphony No. 1 in D major, op.25 ''Classical'' - 2. Larghetto.wav
Peak level 69.0 % Extraction speed 3.1 X Track quality 99.9 % Test CRC CEAC1FA6 Copy CRC CEAC1FA6 Copy OK
Track 3
Filename C:\Users\user\Desktop\Prokofiev weller\03 - London Symphony Orchestra - Walter Weller - Symphony No. 1 in D major, op.25 ''Classical'' - 3. Gavotta- Non troppo allegro.wav
Peak level 67.6 % Extraction speed 7.4 X Track quality 99.8 % Test CRC F74FBACA Copy CRC F74FBACA Copy OK
Track 4
Filename C:\Users\user\Desktop\Prokofiev weller\04 - London Symphony Orchestra - Walter Weller - Symphony No. 1 in D major, op.25 ''Classical'' - 4. Finale- Molto vivace.wav
Peak level 97.9 % Extraction speed 5.3 X Track quality 100.0 % Test CRC FDD33758 Copy CRC FDD33758 Copy OK
Track 5
Filename C:\Users\user\Desktop\Prokofiev weller\05 - London Symphony Orchestra - Walter Weller - Russian Overture, op.72.wav
Peak level 100.0 % Extraction speed 7.5 X Track quality 100.0 % Test CRC E1829B98 Copy CRC E1829B98 Copy OK
Track 6
Filename C:\Users\user\Desktop\Prokofiev weller\06 - London Symphony Orchestra - Walter Weller - Symphony No. 5 in B flat major, op.100 - 1, Andante.wav
Peak level 100.0 % Extraction speed 6.3 X Track quality 100.0 % Test CRC 9C92925F Copy CRC 9C92925F Copy OK
Track 7
Filename C:\Users\user\Desktop\Prokofiev weller\07 - London Symphony Orchestra - Walter Weller - Symphony No. 5 in B flat major, op.100 - 2. Allegro marcato.wav
Peak level 97.5 % Extraction speed 6.1 X Track quality 100.0 % Test CRC EC6108F6 Copy CRC EC6108F6 Copy OK
Track 8
Filename C:\Users\user\Desktop\Prokofiev weller\08 - London Symphony Orchestra - Walter Weller - Symphony No. 5 in B flat major, op.100 - 3. Adagio.wav
Peak level 97.8 % Extraction speed 6.4 X Track quality 100.0 % Test CRC C24B8A67 Copy CRC C24B8A67 Copy OK
Track 9
Filename C:\Users\user\Desktop\Prokofiev weller\09 - London Symphony Orchestra - Walter Weller - Symphony No. 5 in B flat major, op.100 - 4. Allegro giocoso.wav
Peak level 100.0 % Extraction speed 7.6 X Track quality 100.0 % Test CRC 4F05C744 Copy CRC 4F05C744 Copy OK
No errors occurred
End of status report
==== Log checksum FD537FB8F4575990E074385BC4C6CE8EA1C73C7ACE1761F9D0456A00E852EF9C ====

Disc 2

Exact Audio Copy V1.0 beta 3 from 29. August 2011
EAC extraction logfile from 7. December 2014, 19:30
Prokofiev / The Symphonies, Disc 2
Used drive : PIONEER DVD-RW DVRTD11RS Adapter: 3 ID: 0
Read mode : SecureUtilize accurate stream : YesDefeat audio cache : YesMake use of C2 pointers : No
Read offset correction : 6Overread into Lead-In and Lead-Out : NoFill up missing offset samples with silence : YesDelete leading and trailing silent blocks : NoNull samples used in CRC calculations : YesUsed interface : Native Win32 interface for Win NT & 2000Gap handling : Appended to previous track
Used output format : User Defined EncoderSelected bitrate : 128 kBit/sQuality : HighAdd ID3 tag : NoCommand line compressor : C:\Program Files\Exact Audio Copy\Flac\flac.exe
TOC of the extracted CD
Track | Start | Length | Start sector | End sector --------------------------------------------------------- 1 | 0:00.00 | 11:03.30 | 0 | 49754 2 | 11:03.30 | 25:22.15 | 49755 | 163919 3 | 36:25.45 | 12:52.02 | 163920 | 221821 4 | 49:17.47 | 8:46.45 | 221822 | 261316 5 | 58:04.17 | 8:19.10 | 261317 | 298751 6 | 66:23.27 | 6:07.70 | 298752 | 326346
Track 1
Filename C:\Users\user\Desktop\Prokofiev weller\01 - Prokofiev - Symphony No.2 in D minor, op.40 - Allegro ben articolato.wav
Pre-gap length 0:00:02.00
Peak level 100.0 % Extraction speed 2.8 X Track quality 100.0 % Test CRC 8284D054 Copy CRC 8284D054 Copy OK
Track 2
Filename C:\Users\user\Desktop\Prokofiev weller\02 - Prokofiev - Symphony No.2 in D minor, op.40 - Theme and variations.wav
Peak level 98.1 % Extraction speed 4.9 X Track quality 99.9 % Test CRC 42D1631D Copy CRC 42D1631D Copy OK
Track 3
Filename C:\Users\Vitaliy\Desktop\Prokofiev weller\03 - Prokofiev - Symphony No.3 in C minor, op.44 - Moderato.wav
Peak level 97.5 % Extraction speed 7.0 X Track quality 100.0 % Test CRC 7F190BCE Copy CRC 7F190BCE Copy OK
Track 4
Filename C:\Users\Vitaliy\Desktop\Prokofiev weller\04 - Prokofiev - Symphony No.3 in C minor, op.44 - Andante.wav
Peak level 37.9 % Extraction speed 5.9 X Track quality 100.0 % Test CRC BF6D6C98 Copy CRC BF6D6C98 Copy OK
Track 5
Filename C:\Users\Vitaliy\Desktop\Prokofiev weller\05 - Prokofiev - Symphony No.3 in C minor, op.44 - Allegro agitato.wav
Peak level 94.6 % Extraction speed 2.8 X Track quality 100.0 % Test CRC 77F6E8FE Copy CRC 77F6E8FE Copy OK
Track 6
Filename C:\Users\Vitaliy\Desktop\Prokofiev weller\06 - Prokofiev - Symphony No.3 in C minor, op.44 - Andante mosso -- Allegro moderato.wav
Peak level 91.2 % Extraction speed 6.0 X Track quality 100.0 % Test CRC 7586A1B2 Copy CRC 7586A1B2 Copy OK
No errors occurred
End of status report
==== Log checksum 976FCBC7728701E187E158D22E3A791C804FB086842B513B0AB0365B5ED155A5 ====

Disc 3

Exact Audio Copy V1.0 beta 3 from 29. August 2011
EAC extraction logfile from 7. December 2014, 20:14
Prokofiev / The Symphonies - CD3
Used drive : PIONEER DVD-RW DVRTD11RS Adapter: 3 ID: 0
Read mode : SecureUtilize accurate stream : YesDefeat audio cache : YesMake use of C2 pointers : No
Read offset correction : 6Overread into Lead-In and Lead-Out : NoFill up missing offset samples with silence : YesDelete leading and trailing silent blocks : NoNull samples used in CRC calculations : YesUsed interface : Native Win32 interface for Win NT & 2000Gap handling : Appended to previous track
Used output format : User Defined EncoderSelected bitrate : 128 kBit/sQuality : HighAdd ID3 tag : NoCommand line compressor : C:\Program Files\Exact Audio Copy\Flac\flac.exe
TOC of the extracted CD
Track | Start | Length | Start sector | End sector --------------------------------------------------------- 1 | 0:00.00 | 14:09.68 | 0 | 63742 2 | 14:09.68 | 11:22.30 | 63743 | 114922 3 | 25:32.23 | 4:51.22 | 114923 | 136769 4 | 30:23.45 | 9:18.43 | 136770 | 178662 5 | 39:42.13 | 10:16.20 | 178663 | 224882 6 | 49:58.33 | 7:43.62 | 224883 | 259669 7 | 57:42.20 | 6:51.18 | 259670 | 290512 8 | 64:33.38 | 8:43.25 | 290513 | 329762
Track 1
Filename C:\Users\user\Desktop\Prokofiev weller\01 - Prokofiev - Symphony No.4 in C major, op.47,112 - Andante -- Allegro eroico.wav
Pre-gap length 0:00:02.00
Peak level 96.4 % Extraction speed 5.6 X Track quality 99.9 % Test CRC 697DFF16 Copy CRC 697DFF16 Copy OK
Track 2
Filename C:\Users\user\Desktop\Prokofiev weller\02 - Prokofiev - Symphony No.4 in C major, op.47,112 - Andante tranquillo.wav
Peak level 82.7 % Extraction speed 7.5 X Track quality 100.0 % Test CRC 769A0859 Copy CRC 769A0859 Copy OK
Track 3
Filename C:\Users\user\Desktop\Prokofiev weller\03 - Prokofiev - Symphony No.4 in C major, op.47,112 - Moderato, quasi allegretto.wav
Peak level 38.8 % Extraction speed 4.6 X Track quality 100.0 % Test CRC 4441C766 Copy CRC 4441C766 Copy OK
Track 4
Filename C:\Users\user\Desktop\Prokofiev weller\04 - Prokofiev - Symphony No.4 in C major, op.47,112 - Allegro risoluto -- Andantino -- Allegro come prima -- Moderato brioso.wav
Peak level 97.3 % Extraction speed 6.6 X Track quality 100.0 % Test CRC B8D3D23B Copy CRC B8D3D23B Copy OK
Track 5
Filename C:\Users\user\Desktop\Prokofiev weller\05 - Prokofiev - Symphony No.7 in C sharp minor, op.131 - Moderato.wav
Peak level 88.5 % Extraction speed 6.7 X Track quality 100.0 % Test CRC B1BBBF78 Copy CRC B1BBBF78 Copy OK
Track 6
Filename C:\Users\user\Desktop\Prokofiev weller\06 - Prokofiev - Symphony No.7 in C sharp minor, op.131 - Allegretto.wav
Peak level 100.0 % Extraction speed 6.2 X Track quality 99.9 % Test CRC EDF6CA64 Copy CRC EDF6CA64 Copy OK
Track 7
Filename C:\Users\user\Desktop\Prokofiev weller\07 - Prokofiev - Symphony No.7 in C sharp minor, op.131 - Andante espressivo.wav
Peak level 33.2 % Extraction speed 6.9 X Track quality 100.0 % Test CRC F0823BAD Copy CRC F0823BAD Copy OK
Track 8
Filename C:\Users\user\Desktop\Prokofiev weller\08 - Prokofiev - Symphony No.7 in C sharp minor, op.131 - Vivace.wav
Peak level 100.0 % Extraction speed 7.1 X Track quality 100.0 % Test CRC 78CF5DE8 Copy CRC 78CF5DE8 Copy OK
No errors occurred
End of status report
==== Log checksum 2205EC494CF187511F193A399CBD301BCD95FDEED1C61223909F5B0BC7EC270E ====

Disc 4

Exact Audio Copy V1.0 beta 3 from 29. August 2011
EAC extraction logfile from 7. December 2014, 20:28
Prokofiev / The Symphonies, Disc 4
Used drive : PIONEER DVD-RW DVRTD11RS Adapter: 3 ID: 0
Read mode : SecureUtilize accurate stream : YesDefeat audio cache : YesMake use of C2 pointers : No
Read offset correction : 6Overread into Lead-In and Lead-Out : NoFill up missing offset samples with silence : YesDelete leading and trailing silent blocks : NoNull samples used in CRC calculations : YesUsed interface : Native Win32 interface for Win NT & 2000Gap handling : Appended to previous track
Used output format : User Defined EncoderSelected bitrate : 128 kBit/sQuality : HighAdd ID3 tag : NoCommand line compressor : C:\Program Files\Exact Audio Copy\Flac\flac.exe
TOC of the extracted CD
Track | Start | Length | Start sector | End sector --------------------------------------------------------- 1 | 0:00.00 | 16:39.45 | 0 | 74969 2 | 16:39.45 | 16:52.20 | 74970 | 150889 3 | 33:31.65 | 12:05.52 | 150890 | 205316 4 | 45:37.42 | 6:29.50 | 205317 | 234541 5 | 52:07.17 | 2:39.65 | 234542 | 246531 6 | 54:47.07 | 7:45.18 | 246532 | 281424 7 | 62:32.25 | 6:01.65 | 281425 | 308564
Track 1
Filename C:\Users\user\Desktop\Prokofiev weller\01 - Prokofiev - Symphony No.6 in E flat minor, op.111 - Allegro moderato.wav
Pre-gap length 0:00:02.00
Peak level 87.1 % Extraction speed 7.2 X Track quality 100.0 % Test CRC 94706123 Copy CRC 94706123 Copy OK
Track 2
Filename C:\Users\user\Desktop\Prokofiev weller\02 - Prokofiev - Symphony No.6 in E flat minor, op.111 - Largo.wav
Peak level 83.6 % Extraction speed 6.7 X Track quality 99.9 % Test CRC 360E6994 Copy CRC 360E6994 Copy OK
Track 3
Filename C:\Users\user\Desktop\Prokofiev weller\03 - Prokofiev - Symphony No.6 in E flat minor, op.111 - Vivace.wav
Peak level 95.3 % Extraction speed 7.8 X Track quality 100.0 % Test CRC 5154322E Copy CRC 5154322E Copy OK
Track 4
Filename C:\Users\user\Desktop\Prokofiev weller\04 - Prokofiev - Scythian suite (.wav
Peak level 86.8 % Extraction speed 7.1 X Track quality 100.0 % Test CRC 6EB20BE9 Copy CRC 6EB20BE9 Copy OK
Track 5
Filename C:\Users\user\Desktop\Prokofiev weller\05 - Prokofiev - Scythian suite (.wav
Peak level 94.3 % Extraction speed 2.4 X Track quality 100.0 % Test CRC FBEF3AEB Copy CRC FBEF3AEB Copy OK
Track 6
Filename C:\Users\user\Desktop\Prokofiev weller\06 - Prokofiev - Scythian suite (.wav
Peak level 54.8 % Extraction speed 6.7 X Track quality 100.0 % Test CRC 183D6425 Copy CRC 183D6425 Copy OK
Track 7
Filename C:\Users\user\Desktop\Prokofiev weller\07 - Prokofiev - Scythian suite (.wav
Peak level 86.0 % Extraction speed 4.9 X Track quality 99.9 % Test CRC 78FD0E22 Copy CRC 78FD0E22 Copy OK
No errors occurred
End of status report
==== Log checksum A586484FF9A07B074A865C8D3B4E7D77BB2EAA8A80BF7466B9035B2CD52196C3 ====

Содержание индексной карты (.CUE)Disc 1

REM GENRE ClassicalREM DISCID 7E118609REM COMMENT "ExactAudioCopy v1.0b3"PERFORMER "London Symphony Orchestra - Walter Weller"TITLE "The Symphonies - CD-1"FILE "01 - London Symphony Orchestra - Walter Weller - Symphony No. 1 in D major, op.25 ''Classical'' - 1. Allegro.wav" WAVE TRACK 01 AUDIO TITLE "Symphony No. 1 in D major, op.25 'Classical' - 1. Allegro" PERFORMER "London Symphony Orchestra - Walter Weller" INDEX 01 00:00:00FILE "02 - London Symphony Orchestra - Walter Weller - Symphony No. 1 in D major, op.25 ''Classical'' - 2. Larghetto.wav" WAVE TRACK 02 AUDIO TITLE "Symphony No. 1 in D major, op.25 'Classical' - 2. Larghetto" PERFORMER "London Symphony Orchestra - Walter Weller" INDEX 01 00:00:00FILE "03 - London Symphony Orchestra - Walter Weller - Symphony No. 1 in D major, op.25 ''Classical'' - 3. Gavotta- Non troppo allegro.wav" WAVE TRACK 03 AUDIO TITLE "Symphony No. 1 in D major, op.25 'Classical' - 3. Gavotta: Non troppo allegro" PERFORMER "London Symphony Orchestra - Walter Weller" INDEX 01 00:00:00FILE "04 - London Symphony Orchestra - Walter Weller - Symphony No. 1 in D major, op.25 ''Classical'' - 4. Finale- Molto vivace.wav" WAVE TRACK 04 AUDIO TITLE "Symphony No. 1 in D major, op.25 'Classical' - 4. Finale: Molto vivace" PERFORMER "London Symphony Orchestra - Walter Weller" INDEX 01 00:00:00FILE "05 - London Symphony Orchestra - Walter Weller - Russian Overture, op.72.wav" WAVE TRACK 05 AUDIO TITLE "Russian Overture, op.72" PERFORMER "London Symphony Orchestra - Walter Weller" INDEX 01 00:00:00FILE "06 - London Symphony Orchestra - Walter Weller - Symphony No. 5 in B flat major, op.100 - 1, Andante.wav" WAVE TRACK 06 AUDIO TITLE "Symphony No. 5 in B flat major, op.100 - 1, Andante" PERFORMER "London Symphony Orchestra - Walter Weller" INDEX 01 00:00:00FILE "07 - London Symphony Orchestra - Walter Weller - Symphony No. 5 in B flat major, op.100 - 2. Allegro marcato.wav" WAVE TRACK 07 AUDIO TITLE "Symphony No. 5 in B flat major, op.100 - 2. Allegro marcato" PERFORMER "London Symphony Orchestra - Walter Weller" INDEX 01 00:00:00FILE "08 - London Symphony Orchestra - Walter Weller - Symphony No. 5 in B flat major, op.100 - 3. Adagio.wav" WAVE TRACK 08 AUDIO TITLE "Symphony No. 5 in B flat major, op.100 - 3. Adagio" PERFORMER "London Symphony Orchestra - Walter Weller" INDEX 01 00:00:00FILE "09 - London Symphony Orchestra - Walter Weller - Symphony No. 5 in B flat major, op.100 - 4. Allegro giocoso.wav" WAVE TRACK 09 AUDIO TITLE "Symphony No. 5 in B flat major, op.100 - 4. Allegro giocoso" PERFORMER "London Symphony Orchestra - Walter Weller" INDEX 01 00:00:00

Disc 2

REM DISCID 6C10FF06REM COMMENT "ExactAudioCopy v1.0b3"PERFORMER "Prokofiev"TITLE "The Symphonies, Disc 2"FILE "01 - Prokofiev - Symphony No.2 in D minor, op.40 - Allegro ben articolato.wav" WAVE TRACK 01 AUDIO TITLE "Symphony No.2 in D minor, op.40 - Allegro ben articolato" PERFORMER "Prokofiev" INDEX 01 00:00:00FILE "02 - Prokofiev - Symphony No.2 in D minor, op.40 - Theme and variations.wav" WAVE TRACK 02 AUDIO TITLE "Symphony No.2 in D minor, op.40 - Theme and variations" PERFORMER "Prokofiev" INDEX 01 00:00:00FILE "03 - Prokofiev - Symphony No.3 in C minor, op.44 - Moderato.wav" WAVE TRACK 03 AUDIO TITLE "Symphony No.3 in C minor, op.44 - Moderato" PERFORMER "Prokofiev" INDEX 01 00:00:00FILE "04 - Prokofiev - Symphony No.3 in C minor, op.44 - Andante.wav" WAVE TRACK 04 AUDIO TITLE "Symphony No.3 in C minor, op.44 - Andante" PERFORMER "Prokofiev" INDEX 01 00:00:00FILE "05 - Prokofiev - Symphony No.3 in C minor, op.44 - Allegro agitato.wav" WAVE TRACK 05 AUDIO TITLE "Symphony No.3 in C minor, op.44 - Allegro agitato" PERFORMER "Prokofiev" INDEX 01 00:00:00FILE "06 - Prokofiev - Symphony No.3 in C minor, op.44 - Andante mosso -- Allegro moderato.wav" WAVE TRACK 06 AUDIO TITLE "Symphony No.3 in C minor, op.44 - Andante mosso -- Allegro moderato" PERFORMER "Prokofiev" INDEX 01 00:00:00

Disc 3

REM GENRE MiscREM DISCID 69112C08REM COMMENT "ExactAudioCopy v1.0b3"PERFORMER "Prokofiev"TITLE "The Symphonies - CD3"FILE "01 - Prokofiev - Symphony No.4 in C major, op.47,112 - Andante -- Allegro eroico.wav" WAVE TRACK 01 AUDIO TITLE "Symphony No.4 in C major, op.47/112 - Andante -- Allegro eroico" PERFORMER "Prokofiev" INDEX 01 00:00:00FILE "02 - Prokofiev - Symphony No.4 in C major, op.47,112 - Andante tranquillo.wav" WAVE TRACK 02 AUDIO TITLE "Symphony No.4 in C major, op.47/112 - Andante tranquillo" PERFORMER "Prokofiev" INDEX 01 00:00:00FILE "03 - Prokofiev - Symphony No.4 in C major, op.47,112 - Moderato, quasi allegretto.wav" WAVE TRACK 03 AUDIO TITLE "Symphony No.4 in C major, op.47/112 - Moderato, quasi allegretto" PERFORMER "Prokofiev" INDEX 01 00:00:00FILE "04 - Prokofiev - Symphony No.4 in C major, op.47,112 - Allegro risoluto -- Andantino -- Allegro come prima -- Moderato brioso.wav" WAVE TRACK 04 AUDIO TITLE "Symphony No.4 in C major, op.47/112 - Allegro risoluto -- Andantino -- Allegr..." PERFORMER "Prokofiev" INDEX 01 00:00:00FILE "05 - Prokofiev - Symphony No.7 in C sharp minor, op.131 - Moderato.wav" WAVE TRACK 05 AUDIO TITLE "Symphony No.7 in C sharp minor, op.131 - Moderato" PERFORMER "Prokofiev" INDEX 01 00:00:00FILE "06 - Prokofiev - Symphony No.7 in C sharp minor, op.131 - Allegretto.wav" WAVE TRACK 06 AUDIO TITLE "Symphony No.7 in C sharp minor, op.131 - Allegretto" PERFORMER "Prokofiev" INDEX 01 00:00:00FILE "07 - Prokofiev - Symphony No.7 in C sharp minor, op.131 - Andante espressivo.wav" WAVE TRACK 07 AUDIO TITLE "Symphony No.7 in C sharp minor, op.131 - Andante espressivo" PERFORMER "Prokofiev" INDEX 01 00:00:00FILE "08 - Prokofiev - Symphony No.7 in C sharp minor, op.131 - Vivace.wav" WAVE TRACK 08 AUDIO TITLE "Symphony No.7 in C sharp minor, op.131 - Vivace" PERFORMER "Prokofiev" INDEX 01 00:00:00

Disc 4

REM DISCID 57101207REM COMMENT "ExactAudioCopy v1.0b3"PERFORMER "Prokofiev"TITLE "The Symphonies, Disc 4"FILE "01 - Prokofiev - Symphony No.6 in E flat minor, op.111 - Allegro moderato.wav" WAVE TRACK 01 AUDIO TITLE "Symphony No.6 in E flat minor, op.111 - Allegro moderato" PERFORMER "Prokofiev" INDEX 01 00:00:00FILE "02 - Prokofiev - Symphony No.6 in E flat minor, op.111 - Largo.wav" WAVE TRACK 02 AUDIO TITLE "Symphony No.6 in E flat minor, op.111 - Largo" PERFORMER "Prokofiev" INDEX 01 00:00:00FILE "03 - Prokofiev - Symphony No.6 in E flat minor, op.111 - Vivace.wav" WAVE TRACK 03 AUDIO TITLE "Symphony No.6 in E flat minor, op.111 - Vivace" PERFORMER "Prokofiev" INDEX 01 00:00:00FILE "04 - Prokofiev - Scythian suite (.wav" WAVE TRACK 04 AUDIO TITLE "Scythian suite (" PERFORMER "Prokofiev" INDEX 01 00:00:00FILE "05 - Prokofiev - Scythian suite (.wav" WAVE TRACK 05 AUDIO TITLE "Scythian suite (" PERFORMER "Prokofiev" INDEX 01 00:00:00FILE "06 - Prokofiev - Scythian suite (.wav" WAVE TRACK 06 AUDIO TITLE "Scythian suite (" PERFORMER "Prokofiev" INDEX 01 00:00:00FILE "07 - Prokofiev - Scythian suite (.wav" WAVE TRACK 07 AUDIO TITLE "Scythian suite (" PERFORMER "Prokofiev" INDEX 01 00:00:00



Показать сообщения:    

Текущее время: 05-Дек 05:32

Часовой пояс: UTC + 3


Вы не можете начинать темы
Вы не можете отвечать на сообщения
Вы не можете редактировать свои сообщения
Вы не можете удалять свои сообщения
Вы не можете голосовать в опросах
Вы не можете прикреплять файлы к сообщениям
Вы не можете скачивать файлы