(Baroque suite) Michel-Richard Delalande (De Lalande) - Symphonies pour les Soupers du Roy [4CD] (La Simphonie du Marais, Hugo Reyne) - 1992, FLAC (image+.cue) lossless


 

[Цитировать]

Michel-Richard Delalande (De Lalande): Symphonies pour les Soupers du Roy (4CD)

Жанр: Baroque suite
Страна-производитель диска: Made in W. Germany
Год издания диска: 1992
Издатель (лейбл): harmonia mundi s.a.
Номер по каталогу: HMC 901337.40
Дата записи: 1990
Аудиокодек: FLAC
Тип рипа: image+.cue
Битрейт аудио: lossless
Продолжительность: 73:29 + 75:55 + 75:44 + 75:13
Источник: релизер Saoshya (подарок)
Наличие сканов в содержимом раздачи: да
Треклист:

скрытый текст

Disc One 73:29

скрытый текст

Concert de Trumpettes
01. Prйlude avec les trumpettes, Rondeau
02. 2e Air pour les mesmes, Air des Echos
03. Chaconne avec les trumpettes
04. Menuet avec les trompettes, 2e Menuet pour les hautbois (alternativement)
05. Fanfare de Trompettes, 2e Air des Echos
Premiere Suite
06. 1иme Suite, Ouverture
07. 1иme Suite, Trio de hautbois, Gigue
08. 1иme Suite, Air
09. 1иme Suite, Sarabande
10. 1иme Suite, Prйlude
11. 1иme Suite, Air grave
12. 1иme Suite, Trio de hautbois
13. 1иme Suite, Petit air
14. 1иme Suite, Passacaille Grande Piиce
15. 1иme Suite, 1er Air grave
16. 1иme Suite, 2e Air viste, Air de furie
17. 1иme Suite, 3e Air
18. 1иme Suite, Trio de hautbois, Gavotte
19. 1иme Suite, 4e Air
Second Suite
20. 2иme Suite, Ouverture
21. 2иme Suite, 1er Air, Prйlude, Gracieusement
22. 2иme Suite, 2e Air
23. 2иme Suite, 3e Air
24. 2иme Suite, Chaconne de Villers-Cotterкt
25. 2иme Suite, Grand Air
26. 2иme Suite, Air pour les Echos
27. 2иme Suite, 2иme Suite, Sarabande
28. 2иme Suite, Concert
29. 2иme Suite, 1er Air
30. 2иme Suite, 2e Air
31. 2иme Suite, Gavotte
32. 2иme Suite, Passepied
Troisiкme Suite
33. 3иme Suite, 1er Air
34. 3иme Suite, Trio de hautbois, Loure
35. 3иme Suite, 2e Air, Lйgиrment
36. 3иme Suite, Sarabande
37. 3иme Suite, 1er Air
38. 3иme Suite, 2e Air, Gigue
39. 3иme Suite, La Loure
40. 3иme Suite, 1er Menuet - 2e Menuet (alternativement)
Disc Two 75:55

скрытый текст

Troisiкme Suite (fin)
01. 3иme Suite, Grande Piиce en D-la-rй, Passacaille Rй
(extrait de L’Amour flйchi par la Constance)
Quatriкme Suite
02. 4иme Suite, Ouverture (extrait des Fontaines de Versailles)
03. 4иme Suite, Rondeau
04. 4иme Suite, Gigue
05. 4иme Suite, Air, Petit air tendre, “Jeunes Zйphirs”
06. 4иme Suite, Chaconne
07. 4иme Suite, 1er Air
08. 4иme Suite, 2e Air, Bourrйe en Rondeau, Gayement
09. 4иme Suite, Trio de hautbois
10. 4иme Suite, Rondeau
11. 4иme Suite, Sarabande
12. 4иme Suite, 1er Air
13. 4иme Suite, 2e Air, “La Naissante Aurore”
14. 4иme Suite, 3e Air
Cinquiкme Suite
15. 5иme Suite, Ouverture
16. 5иme Suite, 1er Air
17. 5иme Suite, 2e Air, Lйgиrement
18. 5иme Suite, Chaconne
19. 5иme Suite, 1er Air
20. 5иme Suite, 2e Air
21. 5иme Suite, 3e Air, vif
22. 5иme Suite, Sarabande - 2e Sarabande (alternativement)
23. 5иme Suite, Grande Piиce en G-rй-sol, La grande piиce royale,
2eme Fantasie ou Caprice que le Roy demandoit souvent.
Un peu lent-(viste)-Doucement-Gracieusement-Gayement-Vivement
24. 5иme Suite, Grand Air
25. 5иme Suite, Loure
26. 5иme Suite, Trio de hautbois, Rondeau
27. 5иme Suite, Dernier Air, vif et dйtachй
Sixiкme Suite, Airs du Ballet de Flore ou de Trianon
28. 6иme Suite, Ouverture
29. 6иme Suite, Bourrйe
30. 6иme Suite, Menuet de la Princesse de Blois
31. 6иme Suite, Air des Zйphirs
32. 6иme Suite, Grand Air
33. 6иme Suite, Air de Diane
34. 6иme Suite, Bourrйe, Rondeau
35. 6иme Suite, Sarabande en trio (de hautbois), “Sur les Autels”
36. 6иme Suite, Gigue
Disc Three 75:44

скрытый текст

Sixiкme Suite (fin)
01. 6иme Suite, Air des Hйros
02. 6иme Suite, Air pour la Gloire
03. 6иme Suite, Gavotte
04. 6иme Suite, Sarabande
05. 6иme Suite, Gigue
06. 6иme Suite, Passacaille
Septiкme Suite
07. 7иme Suite, Allemande
08. 7иme Suite, Rondeau
09. 7иme Suite, Passepied
10. 7иme Suite, Trio (de hautbois)
11. 7иme Suite, Chaconne
12. 7иme Suite, Air de mouvement, Vivement
13. 7иme Suite, Gavotte (en Bourrйe) - 2e Gavotte (en Bourrйe), Trio (alternativement)
14. 7иme Suite, Air
15. 7иme Suite, Trio (de hautbois)
16. 7иme Suite, 2e Air
17. 7иme Suite, 3e Air, Gay
18. 7иme Suite, Symphonie de Marais
19. 7иme Suite, Caprice de Villers-Cotterкts, 1er Caprice Lйgиrement,
Fiиrement et dйtachй Lentement, Gracieusement -
Viste, Un peu plus gay - Augmentation, 1er Air neuf, Gracieusement -
Viste, Suitte de l’ancien, Vif
20. 7иme Suite, Lentement, Trio, Doucement Augmentation, 2e Air neuf Viste,
Suitte de l’ancien, Vivement
Huitiкme Suite
21. 8иme Suite, Ouverture
22. 8иme Suite, Air grave
23. 8иme Suite, 2e Air plus vite - Trio de hautbois (alternativement)
24. 8иme Suite, Grand Air, Grave
25. 8иme Suite, 2e Air Vif
26. 8иme Suite, Loure en Rondeau
27. 8иme Suite, 3e Air
28. 8иme Suite, Prйlude
29. 8иme Suite, Sarabande
30. 8иme Suite, Rondeau
31. 8иme Suite, Dernier Air
32. 8иme Suite, Passacaille, Chaconne en Passacaille
Neuviкme Suite
33. 9иme Suite, Ouverture
34. 9иme Suite, Prйlude our les Muses
35. 9иme Suite, Air
36. 9иme Suite, Passepied
37. 9иme Suite, Petit Air, “Pour Aimer”
Disc Four 75:13

скрытый текст

Neuviкme Suite (fin)
01. 9иme Suite, Grand Air
02. 9иme Suite, Rondeau, Lйgиrement
03. 9иme Suite, Loure, Doucement
04. 9иme Suite, Air Grave, Air des Fleuves, Doucement et Gracieusement
05. 9иme Suite, Chaconne
06. 9иme Suite, 1er Air des Siamois, Pesament
07. 9иme Suite, 2e Air des Siamois, Pesament, Doucement, La Pagode
08. 9иme Suite, Air des Basques, Canarie
09. 9иme Suite, Menuet
10. 9иme Suite, 2e Air, Bourrйe
11. 9иme Suite, Passepied
12. 9иme Suite, Rigaudon - 2e Rigaudon, Trio (alternativement)
Dixiкme Suite, Air du Ballet des Fйes
13. 10иme Suite, Ouverture
14. 10иme Suite, Prйlude
15. 10иme Suite, 1er Air, Lйgиrement
16. 10иme Suite, Trio, “Dans ces lieux”
17. 10иme Suite, Gigue
18. 10иme Suite, Gavotte
19. 10иme Suite, 2e Air, Gavotte, Rondeau. “C’est l’amour”
20. 10иme Suite, La Forlana
21. 10иme Suite, Sarabande
22. 10иme Suite, Saltarelle
23. 10иme Suite, Contredance, Marche
24. 10иme Suite, Air, Lйgиrement
25. 10иme Suite, Loure
26. 10иme Suite, Chaconne
Onziкme Suite, Airs de Ballet de la Paix
27. 11иme Suite, Ouverture
28. 11иme Suite, Trio, “A cette pompe”
29. 11иme Suite, Air
30. 11иme Suite, Sarabande
31. 11иme Suite, Air, Lйger
32. 11иme Suite, Trio, “Les oiseaux”
33. 11иme Suite, Rondeau
34. 11иme Suite, Gigue, Lйgиrement
35. 11иme Suite, Symphonie, Trio, “Mais quelle aimable mйlodie”
36. 11иme Suite, Trio, “Pиre des jeux”
37. 11иme Suite, Trio, Gayement, “Chantons ce hйros”
38. 11иme Suite, Air, Lйgиrement
Douziкme Suite, dont les Airs forment le 3иme Caprice
39. 12иme Suite, Gracieusement
40. 12иme Suite, 2e Air mineur
41. 12иme Suite, Air vif, presto
42. 12иme Suite, Gigue, Gracieusement
43. 12иme Suite, Quatour, Doucement
44. 12иme Suite, Prйlude
45. 12иme Suite, Air vif
Исполнители:

скрытый текст

Michel-Richard DeLalande (1657-1726)
Symphonies pour les Soupers du Roy (version integrale)
La Simphonie du Marais
Hugo Reyne, Direction
Audio CD (December 9, 1992)

Лог создания рипа

CD1

скрытый текст

Exact Audio Copy V0.99 prebeta 4 from 23. January 2008
EAC extraction logfile from 3. December 2014, 21:16
Michel-Richard Delalande / Symphonies pour les Soupers du Roy CD1
Used drive : SONY DVD-ROM DDU1615 Adapter: 0 ID: 0
Read mode : Secure
Utilize accurate stream : Yes
Defeat audio cache : Yes
Make use of C2 pointers : No
Read offset correction : 6
Overread into Lead-In and Lead-Out : No
Fill up missing offset samples with silence : Yes
Delete leading and trailing silent blocks : No
Null samples used in CRC calculations : Yes
Used interface : Native Win32 interface for Win NT & 2000
Used output format : User Defined Encoder
Selected bitrate : 1024 kBit/s
Quality : High
Add ID3 tag : No
Command line compressor : C:\Program Files\REACT\REACT.exe
Additional command line options : REACT %o %s %d "%a" "%g" "%t" "%n" "%x" "%y" "%m" "%e" "%f" "%b" %r
TOC of the extracted CD
Track | Start | Length | Start sector | End sector
---------------------------------------------------------
1 | 0:00.33 | 1:59.50 | 33 | 9007
2 | 2:00.08 | 0:58.57 | 9008 | 13414
3 | 2:58.65 | 2:04.15 | 13415 | 22729
4 | 5:03.05 | 2:07.53 | 22730 | 32307
5 | 7:10.58 | 1:25.10 | 32308 | 38692
6 | 8:35.68 | 2:39.62 | 38693 | 50679
7 | 11:15.55 | 1:32.08 | 50680 | 57587
8 | 12:47.63 | 1:22.50 | 57588 | 63787
9 | 14:10.38 | 1:16.25 | 63788 | 69512
10 | 15:26.63 | 1:38.12 | 69513 | 76874
11 | 17:05.00 | 1:41.25 | 76875 | 84474
12 | 18:46.25 | 1:31.45 | 84475 | 91344
13 | 20:17.70 | 0:56.45 | 91345 | 95589
14 | 21:14.40 | 6:41.73 | 95590 | 125737
15 | 27:56.38 | 1:27.35 | 125738 | 132297
16 | 29:23.73 | 1:03.42 | 132298 | 137064
17 | 30:27.40 | 1:51.10 | 137065 | 145399
18 | 32:18.50 | 1:11.70 | 145400 | 150794
19 | 33:30.45 | 1:24.73 | 150795 | 157167
20 | 34:55.43 | 1:48.70 | 157168 | 165337
21 | 36:44.38 | 2:47.60 | 165338 | 177922
22 | 39:32.23 | 1:28.55 | 177923 | 184577
23 | 41:01.03 | 1:26.47 | 184578 | 191074
24 | 42:27.50 | 4:21.03 | 191075 | 210652
25 | 46:48.53 | 1:46.25 | 210653 | 218627
26 | 48:35.03 | 0:55.45 | 218628 | 222797
27 | 49:30.48 | 2:02.05 | 222798 | 231952
28 | 51:32.53 | 1:47.27 | 231953 | 240004
29 | 53:20.05 | 1:34.38 | 240005 | 247092
30 | 54:54.43 | 4:20.10 | 247093 | 266602
31 | 59:14.53 | 0:59.07 | 266603 | 271034
32 | 60:13.60 | 0:59.50 | 271035 | 275509
33 | 61:13.35 | 1:20.03 | 275510 | 281512
34 | 62:33.38 | 1:02.10 | 281513 | 286172
35 | 63:35.48 | 1:07.05 | 286173 | 291202
36 | 64:42.53 | 2:24.02 | 291203 | 302004
37 | 67:06.55 | 1:45.68 | 302005 | 309947
38 | 68:52.48 | 1:11.55 | 309948 | 315327
39 | 70:04.28 | 1:27.52 | 315328 | 321904
40 | 71:32.05 | 1:59.10 | 321905 | 330839
Range status and errors
Selected range
Filename L:\Ripped by Saoshya\HMC 901337.40 Michel-Richard DeLalande - Symphonies pour les Soupers du Roy (La Simphonie du Marais, Reyne)\CDImage 1\DeLalande - Symphonies pour les Soupers du Roy - La Simphonie du Marais CD1.wav
Peak level 94.0 %
Range quality 100.0 %
Test CRC 22D3F19E
Copy CRC 22D3F19E
Copy OK
No errors occurred
AccurateRip summary
Track 1 accurately ripped (confidence 9) [92284CBA]
Track 2 accurately ripped (confidence 9) [40F21D8B]
Track 3 accurately ripped (confidence 9) [343665FF]
Track 4 accurately ripped (confidence 9) [F481DB6C]
Track 5 accurately ripped (confidence 9) [0B68F42B]
Track 6 accurately ripped (confidence 9) [FCA83CBE]
Track 7 accurately ripped (confidence 9) [06D2F61E]
Track 8 accurately ripped (confidence 9) [1FD86BCE]
Track 9 accurately ripped (confidence 9) [237BB606]
Track 10 accurately ripped (confidence 9) [679FC68C]
Track 11 accurately ripped (confidence 9) [5406F0F8]
Track 12 accurately ripped (confidence 8) [826BF837]
Track 13 accurately ripped (confidence 9) [A7901E88]
Track 14 accurately ripped (confidence 9) [81630930]
Track 15 accurately ripped (confidence 9) [10720ECE]
Track 16 accurately ripped (confidence 9) [B7447E07]
Track 17 accurately ripped (confidence 9) [499897A6]
Track 18 accurately ripped (confidence 9) [AE9B1CDC]
Track 19 accurately ripped (confidence 9) [39B9D854]
Track 20 accurately ripped (confidence 9) [3044D821]
Track 21 accurately ripped (confidence 9) [71CADCF4]
Track 22 accurately ripped (confidence 9) [9526D13D]
Track 23 accurately ripped (confidence 8) [41EB803F]
Track 24 accurately ripped (confidence 9) [0DA3DB82]
Track 25 accurately ripped (confidence 9) [A92155D0]
Track 26 accurately ripped (confidence 9) [773B165F]
Track 27 accurately ripped (confidence 9) [6EF7A00F]
Track 28 accurately ripped (confidence 9) [C7596D73]
Track 29 accurately ripped (confidence 9) [15CC77CB]
Track 30 accurately ripped (confidence 8) [A72AB939]
Track 31 accurately ripped (confidence 9) [C86481D7]
Track 32 accurately ripped (confidence 9) [EF6030DB]
Track 33 accurately ripped (confidence 9) [556C5325]
Track 34 accurately ripped (confidence 9) [879D1ADB]
Track 35 accurately ripped (confidence 9) [FA40BE38]
Track 36 accurately ripped (confidence 9) [7B9E4208]
Track 37 accurately ripped (confidence 9) [33B561B9]
Track 38 accurately ripped (confidence 9) [08433D81]
Track 39 accurately ripped (confidence 9) [F803C696]
Track 40 accurately ripped (confidence 9) [5FB69383]
All tracks accurately ripped
End of status report
CD2

скрытый текст

Exact Audio Copy V0.99 prebeta 4 from 23. January 2008
EAC extraction logfile from 3. December 2014, 21:57
Michel-Richard Delalande / Symphonies pour les Soupers du Roy CD2
Used drive : SONY DVD-ROM DDU1615 Adapter: 0 ID: 0
Read mode : Secure
Utilize accurate stream : Yes
Defeat audio cache : Yes
Make use of C2 pointers : No
Read offset correction : 6
Overread into Lead-In and Lead-Out : No
Fill up missing offset samples with silence : Yes
Delete leading and trailing silent blocks : No
Null samples used in CRC calculations : Yes
Used interface : Native Win32 interface for Win NT & 2000
Used output format : User Defined Encoder
Selected bitrate : 1024 kBit/s
Quality : High
Add ID3 tag : No
Command line compressor : C:\Program Files\REACT\REACT.exe
Additional command line options : REACT %o %s %d "%a" "%g" "%t" "%n" "%x" "%y" "%m" "%e" "%f" "%b" %r
TOC of the extracted CD
Track | Start | Length | Start sector | End sector
---------------------------------------------------------
1 | 0:00.32 | 5:53.68 | 32 | 26574
2 | 5:54.25 | 2:32.27 | 26575 | 38001
3 | 8:26.52 | 1:15.20 | 38002 | 43646
4 | 9:41.72 | 1:18.30 | 43647 | 49526
5 | 11:00.27 | 1:33.33 | 49527 | 56534
6 | 12:33.60 | 3:57.32 | 56535 | 74341
7 | 16:31.17 | 1:41.38 | 74342 | 81954
8 | 18:12.55 | 2:14.20 | 81955 | 92024
9 | 20:27.00 | 0:48.62 | 92025 | 95686
10 | 21:15.62 | 1:08.73 | 95687 | 100859
11 | 22:24.60 | 1:41.65 | 100860 | 108499
12 | 24:06.50 | 2:03.22 | 108500 | 117746
13 | 26:09.72 | 2:09.53 | 117747 | 127474
14 | 28:19.50 | 0:54.12 | 127475 | 131536
15 | 29:13.62 | 2:23.60 | 131537 | 142321
16 | 31:37.47 | 1:19.73 | 142322 | 148319
17 | 32:57.45 | 0:41.65 | 148320 | 151459
18 | 33:39.35 | 3:03.45 | 151460 | 165229
19 | 36:43.05 | 2:25.27 | 165230 | 176131
20 | 39:08.32 | 1:26.05 | 176132 | 182586
21 | 40:34.37 | 1:05.08 | 182587 | 187469
22 | 41:39.45 | 3:13.55 | 187470 | 201999
23 | 44:53.25 | 9:35.02 | 202000 | 245126
24 | 54:28.27 | 1:49.55 | 245127 | 253356
25 | 56:18.07 | 1:43.63 | 253357 | 261144
26 | 58:01.70 | 0:57.65 | 261145 | 265484
27 | 58:59.60 | 1:09.57 | 265485 | 270716
28 | 60:09.42 | 2:42.25 | 270717 | 282891
29 | 62:51.67 | 1:00.13 | 282892 | 287404
30 | 63:52.05 | 1:18.17 | 287405 | 293271
31 | 65:10.22 | 1:53.15 | 293272 | 301761
32 | 67:03.37 | 1:53.58 | 301762 | 310294
33 | 68:57.20 | 3:11.72 | 310295 | 324691
34 | 72:09.17 | 1:05.23 | 324692 | 329589
35 | 73:14.40 | 1:26.57 | 329590 | 336096
36 | 74:41.22 | 1:15.73 | 336097 | 341794
Range status and errors
Selected range
Filename L:\Ripped by Saoshya\HMC 901337.40 Michel-Richard DeLalande - Symphonies pour les Soupers du Roy (La Simphonie du Marais, Reyne)\CDImage 2\DeLalande - Symphonies pour les Soupers du Roy - La Simphonie du Marais CD2.wav
Peak level 66.7 %
Range quality 99.9 %
Test CRC 21F95C06
Copy CRC 21F95C06
Copy OK
No errors occurred
AccurateRip summary
Track 1 accurately ripped (confidence 8) [18AB47F0]
Track 2 accurately ripped (confidence 8) [76BB245E]
Track 3 accurately ripped (confidence 8) [9EA05441]
Track 4 accurately ripped (confidence 8) [DFA173AF]
Track 5 accurately ripped (confidence 8) [9F2D1720]
Track 6 accurately ripped (confidence 7) [C7785FEB]
Track 7 accurately ripped (confidence 8) [19F1257F]
Track 8 accurately ripped (confidence 8) [250E09F0]
Track 9 accurately ripped (confidence 8) [751DC21F]
Track 10 accurately ripped (confidence 8) [079ED66E]
Track 11 accurately ripped (confidence 8) [C611CC20]
Track 12 accurately ripped (confidence 8) [401C2010]
Track 13 accurately ripped (confidence 8) [3F8540D1]
Track 14 accurately ripped (confidence 8) [BDD8CCAA]
Track 15 accurately ripped (confidence 8) [2C1AB2CE]
Track 16 accurately ripped (confidence 8) [00796534]
Track 17 accurately ripped (confidence 8) [C2B9E637]
Track 18 accurately ripped (confidence 8) [7BC93969]
Track 19 accurately ripped (confidence 8) [1B75431B]
Track 20 accurately ripped (confidence 8) [B2A11E3C]
Track 21 accurately ripped (confidence 8) [DE97A1C4]
Track 22 accurately ripped (confidence 8) [E3C0797C]
Track 23 accurately ripped (confidence 8) [467BE423]
Track 24 accurately ripped (confidence 8) [C86C594D]
Track 25 accurately ripped (confidence 8) [AC190A6B]
Track 26 accurately ripped (confidence 8) [2047803F]
Track 27 accurately ripped (confidence 8) [5696993B]
Track 28 accurately ripped (confidence 7) [1185ACDC]
Track 29 accurately ripped (confidence 8) [37518E72]
Track 30 accurately ripped (confidence 8) [070E326F]
Track 31 accurately ripped (confidence 8) [0221AD57]
Track 32 accurately ripped (confidence 7) [EE5A4359]
Track 33 accurately ripped (confidence 8) [AE247DFB]
Track 34 accurately ripped (confidence 8) [50855A4E]
Track 35 accurately ripped (confidence 8) [0E9E39AA]
Track 36 accurately ripped (confidence 8) [7E58285E]
All tracks accurately ripped
End of status report
CD3

скрытый текст

Exact Audio Copy V0.99 prebeta 4 from 23. January 2008
EAC extraction logfile from 3. December 2014, 22:28
Michel-Richard Delalande / Symphonies pour les Soupers du Roy CD3
Used drive : SONY DVD-ROM DDU1615 Adapter: 0 ID: 0
Read mode : Secure
Utilize accurate stream : Yes
Defeat audio cache : Yes
Make use of C2 pointers : No
Read offset correction : 6
Overread into Lead-In and Lead-Out : No
Fill up missing offset samples with silence : Yes
Delete leading and trailing silent blocks : No
Null samples used in CRC calculations : Yes
Used interface : Native Win32 interface for Win NT & 2000
Used output format : User Defined Encoder
Selected bitrate : 1024 kBit/s
Quality : High
Add ID3 tag : No
Command line compressor : C:\Program Files\REACT\REACT.exe
Additional command line options : REACT %o %s %d "%a" "%g" "%t" "%n" "%x" "%y" "%m" "%e" "%f" "%b" %r
TOC of the extracted CD
Track | Start | Length | Start sector | End sector
---------------------------------------------------------
1 | 0:00.38 | 0:53.40 | 38 | 4052
2 | 0:54.03 | 0:44.02 | 4053 | 7354
3 | 1:38.05 | 1:03.68 | 7355 | 12147
4 | 2:41.73 | 1:00.12 | 12148 | 16659
5 | 3:42.10 | 1:13.08 | 16660 | 22142
6 | 4:55.18 | 6:29.00 | 22143 | 51317
7 | 11:24.18 | 1:39.52 | 51318 | 58794
8 | 13:03.70 | 1:21.70 | 58795 | 64939
9 | 14:25.65 | 0:38.60 | 64940 | 67849
10 | 15:04.50 | 1:16.05 | 67850 | 73554
11 | 16:20.55 | 4:12.55 | 73555 | 92509
12 | 20:33.35 | 1:06.68 | 92510 | 97527
13 | 21:40.28 | 1:35.47 | 97528 | 104699
14 | 23:16.00 | 1:18.00 | 104700 | 110549
15 | 24:34.00 | 1:54.60 | 110550 | 119159
16 | 26:28.60 | 1:10.10 | 119160 | 124419
17 | 27:38.70 | 1:31.43 | 124420 | 131287
18 | 29:10.38 | 0:25.52 | 131288 | 133214
19 | 29:36.15 | 6:59.53 | 133215 | 164692
20 | 36:35.68 | 7:43.25 | 164693 | 199442
21 | 44:19.18 | 3:00.65 | 199443 | 213007
22 | 47:20.08 | 2:30.12 | 213008 | 224269
23 | 49:50.20 | 1:30.70 | 224270 | 231089
24 | 51:21.15 | 2:13.35 | 231090 | 241099
25 | 53:34.50 | 1:20.30 | 241100 | 247129
26 | 54:55.05 | 1:26.53 | 247130 | 253632
27 | 56:21.58 | 0:46.35 | 253633 | 257117
28 | 57:08.18 | 2:31.35 | 257118 | 268477
29 | 59:39.53 | 2:06.10 | 268478 | 277937
30 | 61:45.63 | 1:27.25 | 277938 | 284487
31 | 63:13.13 | 0:55.07 | 284488 | 288619
32 | 64:08.20 | 6:20.38 | 288620 | 317157
33 | 70:28.58 | 1:56.25 | 317158 | 325882
34 | 72:25.08 | 1:13.15 | 325883 | 331372
35 | 73:38.23 | 0:43.00 | 331373 | 334597
36 | 74:21.23 | 0:39.50 | 334598 | 337572
37 | 75:00.73 | 0:45.40 | 337573 | 340987
Range status and errors
Selected range
Filename L:\Ripped by Saoshya\HMC 901337.40 Michel-Richard DeLalande - Symphonies pour les Soupers du Roy (La Simphonie du Marais, Reyne)\CDImage 3\DeLalande - Symphonies pour les Soupers du Roy - La Simphonie du Marais CD3.wav
Peak level 81.1 %
Range quality 100.0 %
Test CRC E344445B
Copy CRC E344445B
Copy OK
No errors occurred
AccurateRip summary
Track 1 accurately ripped (confidence 6) [F6F98607]
Track 2 accurately ripped (confidence 7) [A297C961]
Track 3 accurately ripped (confidence 7) [AD06F8F6]
Track 4 accurately ripped (confidence 7) [6BDD74FF]
Track 5 accurately ripped (confidence 7) [5D281A3E]
Track 6 accurately ripped (confidence 7) [967FC3C7]
Track 7 accurately ripped (confidence 7) [3B5A753E]
Track 8 accurately ripped (confidence 7) [00CED2D5]
Track 9 accurately ripped (confidence 7) [69B16DEC]
Track 10 accurately ripped (confidence 7) [9E4ECD7C]
Track 11 accurately ripped (confidence 6) [993AD911]
Track 12 accurately ripped (confidence 7) [DF60A773]
Track 13 accurately ripped (confidence 7) [9B2190C5]
Track 14 accurately ripped (confidence 7) [01FC0696]
Track 15 accurately ripped (confidence 7) [7D444C36]
Track 16 accurately ripped (confidence 7) [D209FB39]
Track 17 accurately ripped (confidence 7) [794E1114]
Track 18 accurately ripped (confidence 7) [0EB8E0FC]
Track 19 accurately ripped (confidence 7) [DE91E67F]
Track 20 accurately ripped (confidence 7) [6D0EF477]
Track 21 accurately ripped (confidence 7) [238A7529]
Track 22 accurately ripped (confidence 7) [FD9C1BA3]
Track 23 accurately ripped (confidence 7) [693C35CD]
Track 24 accurately ripped (confidence 7) [20A816AD]
Track 25 accurately ripped (confidence 7) [EB43D8E1]
Track 26 accurately ripped (confidence 7) [6A653DD1]
Track 27 accurately ripped (confidence 8) [0272E889]
Track 28 accurately ripped (confidence 8) [EE59D727]
Track 29 accurately ripped (confidence 7) [5B24BC25]
Track 30 accurately ripped (confidence 7) [1FBC78C9]
Track 31 accurately ripped (confidence 7) [8E94F1A8]
Track 32 accurately ripped (confidence 8) [D067E79F]
Track 33 accurately ripped (confidence 8) [06996993]
Track 34 accurately ripped (confidence 8) [6197BAD1]
Track 35 accurately ripped (confidence 7) [6561D1D1]
Track 36 accurately ripped (confidence 8) [FE24780E]
Track 37 accurately ripped (confidence 8) [A5279E43]
All tracks accurately ripped
End of status report
CD4

скрытый текст

Exact Audio Copy V0.99 prebeta 4 from 23. January 2008
EAC extraction logfile from 3. December 2014, 22:58
Michel-Richard Delalande / Symphonies pour les Soupers du Roy CD4
Used drive : SONY DVD-ROM DDU1615 Adapter: 0 ID: 0
Read mode : Secure
Utilize accurate stream : Yes
Defeat audio cache : Yes
Make use of C2 pointers : No
Read offset correction : 6
Overread into Lead-In and Lead-Out : No
Fill up missing offset samples with silence : Yes
Delete leading and trailing silent blocks : No
Null samples used in CRC calculations : Yes
Used interface : Native Win32 interface for Win NT & 2000
Used output format : User Defined Encoder
Selected bitrate : 1024 kBit/s
Quality : High
Add ID3 tag : No
Command line compressor : C:\Program Files\REACT\REACT.exe
Additional command line options : REACT %o %s %d "%a" "%g" "%t" "%n" "%x" "%y" "%m" "%e" "%f" "%b" %r
TOC of the extracted CD
Track | Start | Length | Start sector | End sector
---------------------------------------------------------
1 | 0:00.38 | 2:05.22 | 38 | 9434
2 | 2:05.60 | 0:59.53 | 9435 | 13912
3 | 3:05.38 | 1:59.25 | 13913 | 22862
4 | 5:04.63 | 4:22.25 | 22863 | 42537
5 | 9:27.13 | 5:16.35 | 42538 | 66272
6 | 14:43.48 | 2:27.42 | 66273 | 77339
7 | 17:11.15 | 1:53.18 | 77340 | 85832
8 | 19:04.33 | 0:26.22 | 85833 | 87804
9 | 19:30.55 | 0:37.13 | 87805 | 90592
10 | 20:07.68 | 0:31.25 | 90593 | 92942
11 | 20:39.18 | 0:42.47 | 92943 | 96139
12 | 21:21.65 | 1:39.03 | 96140 | 103567
13 | 23:00.68 | 2:34.55 | 103568 | 115172
14 | 25:35.48 | 1:09.15 | 115173 | 120362
15 | 26:44.63 | 1:11.05 | 120363 | 125692
16 | 27:55.68 | 1:05.72 | 125693 | 130639
17 | 29:01.65 | 1:27.50 | 130640 | 137214
18 | 30:29.40 | 0:41.18 | 137215 | 140307
19 | 31:10.58 | 0:54.42 | 140308 | 144399
20 | 32:05.25 | 1:12.60 | 144400 | 149859
21 | 33:18.10 | 0:51.55 | 149860 | 153739
22 | 34:09.65 | 0:32.50 | 153740 | 156189
23 | 34:42.40 | 1:14.08 | 156190 | 161747
24 | 35:56.48 | 0:52.40 | 161748 | 165687
25 | 36:49.13 | 1:19.42 | 165688 | 171654
26 | 38:08.55 | 2:52.73 | 171655 | 184627
27 | 41:01.53 | 2:25.15 | 184628 | 195517
28 | 43:26.68 | 1:57.47 | 195518 | 204339
29 | 45:24.40 | 1:12.33 | 204340 | 209772
30 | 46:36.73 | 2:11.05 | 209773 | 219602
31 | 48:48.03 | 1:05.52 | 219603 | 224529
32 | 49:53.55 | 1:33.05 | 224530 | 231509
33 | 51:26.60 | 1:15.00 | 231510 | 237134
34 | 52:41.60 | 1:53.33 | 237135 | 245642
35 | 54:35.18 | 2:55.00 | 245643 | 258767
36 | 57:30.18 | 1:04.10 | 258768 | 263577
37 | 58:34.28 | 1:50.62 | 263578 | 271889
38 | 60:25.15 | 0:59.68 | 271890 | 276382
39 | 61:25.08 | 2:28.27 | 276383 | 287509
40 | 63:53.35 | 2:05.13 | 287510 | 296897
41 | 65:58.48 | 1:17.50 | 296898 | 302722
42 | 67:16.23 | 2:20.17 | 302723 | 313239
43 | 69:36.40 | 3:28.08 | 313240 | 328847
44 | 73:04.48 | 0:23.67 | 328848 | 330639
45 | 73:28.40 | 1:46.73 | 330640 | 338662
Range status and errors
Selected range
Filename L:\Ripped by Saoshya\HMC 901337.40 Michel-Richard DeLalande - Symphonies pour les Soupers du Roy (La Simphonie du Marais, Reyne)\CDImage 4\DeLalande - Symphonies pour les Soupers du Roy - La Simphonie du Marais CD4.wav
Peak level 65.7 %
Range quality 100.0 %
Test CRC 913EDE78
Copy CRC 913EDE78
Copy OK
No errors occurred
AccurateRip summary
Track 1 accurately ripped (confidence 5) [5EC4D09B]
Track 2 accurately ripped (confidence 5) [D5BE418E]
Track 3 accurately ripped (confidence 5) [528892A0]
Track 4 accurately ripped (confidence 5) [881E9A23]
Track 5 accurately ripped (confidence 4) [F24134E8]
Track 6 accurately ripped (confidence 4) [47824706]
Track 7 accurately ripped (confidence 5) [2C74446C]
Track 8 accurately ripped (confidence 5) [825784F4]
Track 9 accurately ripped (confidence 5) [98721698]
Track 10 accurately ripped (confidence 5) [679F73EB]
Track 11 accurately ripped (confidence 5) [59B224F0]
Track 12 accurately ripped (confidence 5) [412A7DE0]
Track 13 accurately ripped (confidence 5) [94AA49F2]
Track 14 accurately ripped (confidence 5) [7739CC34]
Track 15 accurately ripped (confidence 5) [82D73817]
Track 16 accurately ripped (confidence 4) [8A7CA1FF]
Track 17 accurately ripped (confidence 5) [30043DF2]
Track 18 accurately ripped (confidence 5) [62B45D43]
Track 19 accurately ripped (confidence 5) [2B2BDC33]
Track 20 accurately ripped (confidence 5) [071DD664]
Track 21 accurately ripped (confidence 5) [9CD8B747]
Track 22 accurately ripped (confidence 5) [5FBEBD04]
Track 23 accurately ripped (confidence 5) [F8B7E6EB]
Track 24 accurately ripped (confidence 5) [0258F21B]
Track 25 accurately ripped (confidence 5) [BE2F5389]
Track 26 accurately ripped (confidence 5) [68225C8D]
Track 27 accurately ripped (confidence 5) [FD269934]
Track 28 accurately ripped (confidence 5) [1FD9283D]
Track 29 accurately ripped (confidence 5) [0F81AFF1]
Track 30 accurately ripped (confidence 5) [1700223D]
Track 31 accurately ripped (confidence 5) [3E521148]
Track 32 accurately ripped (confidence 5) [467E58B8]
Track 33 accurately ripped (confidence 5) [6A1B322D]
Track 34 accurately ripped (confidence 5) [47151C9A]
Track 35 accurately ripped (confidence 5) [E2D5852C]
Track 36 accurately ripped (confidence 5) [3FE88F50]
Track 37 accurately ripped (confidence 5) [9BE3DB93]
Track 38 accurately ripped (confidence 5) [29ABF937]
Track 39 accurately ripped (confidence 5) [831784D8]
Track 40 accurately ripped (confidence 6) [58A8C6CF]
Track 41 accurately ripped (confidence 6) [45493CF1]
Track 42 accurately ripped (confidence 5) [772EFBC7]
Track 43 accurately ripped (confidence 6) [14EAAB1F]
Track 44 accurately ripped (confidence 6) [AFFBFD61]
Track 45 accurately ripped (confidence 6) [C71B0A4C]
All tracks accurately ripped
End of status report



Показать сообщения:    

Текущее время: 03-Дек 05:28

Часовой пояс: UTC + 3


Вы не можете начинать темы
Вы не можете отвечать на сообщения
Вы не можете редактировать свои сообщения
Вы не можете удалять свои сообщения
Вы не можете голосовать в опросах
Вы не можете прикреплять файлы к сообщениям
Вы не можете скачивать файлы