(Classical) T. Albinoni, J. S. Bach, C. W. Gluck, E. Grieg, L. van Beethoven, R. Wagner, A. Bruckner - Музыка Скорби и Печали - Государственный Академический Симфонический Оркестр России, Е. Светланов - 2006, FLAC (image+.cue), lossless


 

[Цитировать]

Музыка Скорби и Печали- -Жанр: Classical || Страна-производитель диска: Russia || Издатель (лейбл): Фирма грамзаписи Никитин
Номер по каталогу: ТФН - CD 550/06 || Год издания: 2006 || Аудиокодек: FLAC (*.flac) || Битрейт аудио: lossless
Тип рипа: image+.cue || Продолжительность: 01:17:42 || Источник: Original CD || Наличие сканов в содержимом раздачи: да
-Произведения для Симфонического Оркестра:
-
-

2006 - Музыка Скорби и Печали

Tomaso Albinoni
1 Адажио 07:54-Johann Sebastian Bach
2 Ария из Сюиты № 3 06:06-Christoph Willibald Gluck
3 Мелодия 04:30-Edvard Grieg
4 'Смерть Озе' из сюиты 'Пер Гюнт' 06:00-Ludwig van Beethoven
5 Траурный Марш (2 часть из симфонии № 3) 21:05-Richard Wagner
6 Траурный Марш из Оперы 'Гибель Богов' 08:11-Anton Bruckner
7 Адажио. Финал из симфонии № 9 23:57-Продолжительность: 01:17:42-

-

Лог создания рипа

Exact Audio Copy V1.0 beta 3 from 29. August 2011
EAC extraction logfile from 2. December 2014, 23:56
Государственный Академический Симфонический Оркестр России, Евгений Светланов / Музыка Скорби и Печали
Used drive : ASUS DRW-22B2L b Adapter: 3 ID: 5
Read mode : SecureUtilize accurate stream : YesDefeat audio cache : YesMake use of C2 pointers : No
Read offset correction : 6Overread into Lead-In and Lead-Out : NoFill up missing offset samples with silence : YesDelete leading and trailing silent blocks : NoNull samples used in CRC calculations : YesUsed interface : Native Win32 interface for Win NT & 2000
Used output format : User Defined EncoderSelected bitrate : 128 kBit/sQuality : HighAdd ID3 tag : NoCommand line compressor : C:\Program Files\Exact Audio Copy\Flac\flac.exeAdditional command line options : -V -8 -T "Date=%year%" -T "Genre=%genre%" -T "Composer=%composer%" %source%
TOC of the extracted CD
Track | Start | Length | Start sector | End sector --------------------------------------------------------- 1 | 0:00.32 | 7:53.65 | 32 | 35571 2 | 7:54.22 | 6:05.68 | 35572 | 63014 3 | 14:00.15 | 4:29.52 | 63015 | 83241 4 | 18:29.67 | 5:59.55 | 83242 | 110221 5 | 24:29.47 | 21:05.05 | 110222 | 205101 6 | 45:34.52 | 8:11.05 | 205102 | 241931 7 | 53:45.57 | 23:57.05 | 241932 | 349711
Range status and errors
Selected range
Filename C:\1st0m1n\!!! Посвящается Застенчивому Тихоне Трогательно Скрывающемуся за Маской мультиаккаунта Тrоll !!!\Государственный Академический Симфонический Оркестр России, Евгений Светланов - Музыка Скорби и Печали.wav
Peak level 95.5 % Extraction speed 9.5 X Range quality 100.0 % Test CRC A6D481E6 Copy CRC A6D481E6 Copy OK
No errors occurred
AccurateRip summary
Track 1 cannot be verified as accurate (confidence 1) [9F079524], AccurateRip returned [6A111B1B] (AR v2)Track 2 cannot be verified as accurate (confidence 1) [DD9F25B3], AccurateRip returned [CF11AFEC] (AR v2)Track 3 cannot be verified as accurate (confidence 1) [BE7A2442], AccurateRip returned [E2D6450F] (AR v2)Track 4 cannot be verified as accurate (confidence 1) [E286429D], AccurateRip returned [291024A8] (AR v2)Track 5 cannot be verified as accurate (confidence 1) [E1F81B1A], AccurateRip returned [9266FB55] (AR v2)Track 6 cannot be verified as accurate (confidence 1) [06DD7E64], AccurateRip returned [6BC44B44] (AR v2)Track 7 cannot be verified as accurate (confidence 1) [9568BD86], AccurateRip returned [96DF963E] (AR v2)
No tracks could be verified as accurateYou may have a different pressing from the one(s) in the database
End of status report
---- CUETools DB Plugin V2.1.5
[CTDB TOCID: Six2w6kuXvaMaol429qMTOC8EK4-] disk not present in databaseSubmit result: Six2w6kuXvaMaol429qMTOC8EK4- has been uploaded
==== Log checksum B2330B5187F6CD937FA107FB93AE2356C0FBD299ABD3A4D9EB19B30957D4F86E ====

-

Исполнитель

Государственный Академический Симфонический Оркестр России, дирижер Евгений Светланов-
-



Показать сообщения:    

Текущее время: 03-Дек 14:38

Часовой пояс: UTC + 3


Вы не можете начинать темы
Вы не можете отвечать на сообщения
Вы не можете редактировать свои сообщения
Вы не можете удалять свои сообщения
Вы не можете голосовать в опросах
Вы не можете прикреплять файлы к сообщениям
Вы не можете скачивать файлы