(Classical) Петр Чайковский - Симфония № 6 (RSO Ljubljana, Marko Munih) - 1991, FLAC (image+.cue) lossless


 

[Цитировать]

Петр Чайковский - Симфония № 6 (RSO Ljubljana, Marko Munih)
Жанр: Classical
Страна-производитель диска: Germany
Год издания диска: 1991
Издатель (лейбл): Grand Gala
Номер по каталогу: DGL 2136
Дата записи: 1991?
Аудиокодек: FLAC
Тип рипа: image+.cue
Битрейт аудио: lossless
Продолжительность: 45:13
Источник: собственный рип
сайт-источник/ник/другое: Из личной коллекции
Наличие сканов в содержимом раздачи: да
Треклист:
1-4. Чайковский - Симфония №6 си минор "Патетическая"
Исполнители:
Radio Symphony Orchestra Ljubljana, Cond. Marko Munih

Лог создания рипа

Exact Audio Copy V1.0 beta 3 from 29. August 2011
EAC extraction logfile from 27. November 2014, 21:38
Peter Ilyich Tchaikovsky / Tchaikovsky - Symphony No. 6, B minor Op.74 Pathetique
Used drive : HL-DT-STDVDRAM GSA-T40N Adapter: 0 ID: 0
Read mode : SecureUtilize accurate stream : YesDefeat audio cache : YesMake use of C2 pointers : No
Read offset correction : 667Overread into Lead-In and Lead-Out : NoFill up missing offset samples with silence : YesDelete leading and trailing silent blocks : NoNull samples used in CRC calculations : YesUsed interface : Native Win32 interface for Win NT & 2000
Used output format : User Defined EncoderSelected bitrate : 32 kBit/sQuality : HighAdd ID3 tag : NoCommand line compressor : C:\Program Files\Exact Audio Copy\Flac\flac.exeAdditional command line options : -V -8 -T "Date=%year%" -T "Genre=%genre%" %source%
TOC of the extracted CD
Track | Start | Length | Start sector | End sector --------------------------------------------------------- 1 | 0:00.33 | 18:03.07 | 33 | 81264 2 | 18:03.40 | 7:56.30 | 81265 | 116994 3 | 25:59.70 | 9:13.43 | 116995 | 158512 4 | 35:13.38 | 9:59.37 | 158513 | 203474
Range status and errors
Selected range
Filename D:\Rip\Tchaikovsky.Symphony_No.6-RSO_Ljubljana,Marko_Munih,1991(Grand_Gala)\Peter Ilyich Tchaikovsky - Tchaikovsky - Symphony No. 6, B minor Op.74 Pathetique.wav
Peak level 85.3 % Extraction speed 3.9 X Range quality 100.0 % Test CRC CEFEC3DE Copy CRC CEFEC3DE Copy OK
No errors occurred
AccurateRip summary
Track 1 accurately ripped (confidence 2) [B7ACA1A2] (AR v2)Track 2 accurately ripped (confidence 2) [DC8F1E6C] (AR v2)Track 3 accurately ripped (confidence 2) [F9222914] (AR v2)Track 4 accurately ripped (confidence 2) [6F73B914] (AR v2)
All tracks accurately ripped
End of status report
==== Log checksum 2DEB5E78C94FC5F7F74F6E6BEFB85DF001B7989618A62E135B345C11C26C7AD5 ====

Содержание индексной карты (.CUE)

REM GENRE ClassicalREM DATE 1991REM DISCID 260A9904REM COMMENT "ExactAudioCopy v1.0b3"PERFORMER "Peter Ilyich Tchaikovsky"TITLE "Tchaikovsky - Symphony No. 6, B minor Op.74 Pathetique"FILE "Peter Ilyich Tchaikovsky - Tchaikovsky - Symphony No. 6, B minor Op.74 Pathetique.flac" WAVE TRACK 01 AUDIO TITLE "Adagio, Allegro Non Troppo" PERFORMER "Peter Ilyich Tchaikovsky" INDEX 00 00:00:00 INDEX 01 00:00:33 TRACK 02 AUDIO TITLE "Allegro Con Grazia" PERFORMER "Peter Ilyich Tchaikovsky" INDEX 00 18:02:15 INDEX 01 18:03:40 TRACK 03 AUDIO TITLE "Allegro Molto Vivace" PERFORMER "Peter Ilyich Tchaikovsky" INDEX 00 25:58:60 INDEX 01 25:59:70 TRACK 04 AUDIO TITLE "Finale, Adagio Lamentoso" PERFORMER "Peter Ilyich Tchaikovsky" INDEX 00 35:11:10 INDEX 01 35:13:38



Показать сообщения:    

Текущее время: 09-Дек 08:53

Часовой пояс: UTC + 3


Вы не можете начинать темы
Вы не можете отвечать на сообщения
Вы не можете редактировать свои сообщения
Вы не можете удалять свои сообщения
Вы не можете голосовать в опросах
Вы не можете прикреплять файлы к сообщениям
Вы не можете скачивать файлы