(Classical, contemporary) John Adams - Naive and Sentimental Music - Los Angeles Philharmonic, Esa-Pekka Salonen - 2002, FLAC (image+.cue) lossless


 

[Цитировать]

John Adams - Naive and Sentimental Music - Los Angeles Philharmonic, Esa-Pekka Salonen
Жанр: Classical, contemporary
Год издания диска: 2002
Издатель (лейбл): Nonesuch
Дата записи: 1999
Аудиокодек: FLAC
Тип рипа: image+.cue
Битрейт аудио: lossless
Продолжительность: 44:20
Источник: собственный рип
Наличие сканов в содержимом раздачи: да
Треклист:
John Adams
Naive and Sentimental Music
[1] I. Naive and Sentimental Music
[2] II. Mother of the Man
[3] III. Chain to the Rhythm
Исполнители:
Los Angeles Philharmonic
Esa-Pekka Salonen

Лог создания рипа

Exact Audio Copy V1.0 beta 3 from 29. August 2011
EAC extraction logfile from 22. November 2014, 21:06
Los Angeles Philharmonic, Esa-Pekka Salonen / Adams - Naive and Sentimental Music
Used drive : HL-DT-STDVDRAM GU70N Adapter: 0 ID: 0
Read mode : SecureUtilize accurate stream : YesDefeat audio cache : YesMake use of C2 pointers : No
Read offset correction : 48Overread into Lead-In and Lead-Out : NoFill up missing offset samples with silence : YesDelete leading and trailing silent blocks : NoNull samples used in CRC calculations : YesUsed interface : Native Win32 interface for Win NT & 2000
Used output format : User Defined EncoderSelected bitrate : 128 kBit/sQuality : HighAdd ID3 tag : NoCommand line compressor : C:\Program Files (x86)\Exact Audio Copy\Flac\flac.exeAdditional command line options : -V -8 -T "Date=%year%" -T "Genre=%genre%" %source%
TOC of the extracted CD
Track | Start | Length | Start sector | End sector --------------------------------------------------------- 1 | 0:00.32 | 18:11.68 | 32 | 81924 2 | 18:12.25 | 15:08.52 | 81925 | 150076 3 | 33:21.02 | 10:59.28 | 150077 | 199529
Range status and errors
Selected range
Filename C:\temp\Adams - Naive and Sentimental Music\Adams - Naive and Sentimental Music.wav
Peak level 100.0 % Extraction speed 1.9 X Range quality 100.0 % Test CRC BCEAE442 Copy CRC BCEAE442 Copy OK
No errors occurred
AccurateRip summary
Track 1 cannot be verified as accurate (confidence 15) [BAEB1035], AccurateRip returned [E4F6EA31] (AR v2)Track 2 cannot be verified as accurate (confidence 16) [349EFC1D], AccurateRip returned [0F45F00A] (AR v2)Track 3 cannot be verified as accurate (confidence 15) [95EA7384], AccurateRip returned [5A1CCE30] (AR v2)
No tracks could be verified as accurateYou may have a different pressing from the one(s) in the database
End of status report
==== Log checksum BD24E46079EC44BEA9E55D7F9D3514D107080E7DE3F2FCEEA60E2AFC4752B3C0 ====



Показать сообщения:    

Текущее время: 10-Дек 23:32

Часовой пояс: UTC + 3


Вы не можете начинать темы
Вы не можете отвечать на сообщения
Вы не можете редактировать свои сообщения
Вы не можете удалять свои сообщения
Вы не можете голосовать в опросах
Вы не можете прикреплять файлы к сообщениям
Вы не можете скачивать файлы