(Orchestral) Gustav Mahler - Symphonie Nr.6 »Tragische« (New York Philharmonic Orchestra - Leonard Bernstein) - 1998, FLAC (image+.cue) lossless


 

[Цитировать]

MAHLER - Symphonie Nr.6
New York Philharmonic Orchestra - Bernstein
-
-
-
-
- Жанр: Orchestral
Страна-производитель диска: USA
Год издания диска: 1998
Издатель (лейбл): Sony
Дата записи: 1967
Аудиокодек: FLAC
Тип рипа: image+.cue
Битрейт аудио: lossless
Продолжительность: 77'58''
Источник: собственный рип
Наличие сканов в содержимом раздачи: да
Треклист:
[01] I. Allegro energico, ma non troppo - Heftig, aber markig
[02] II. Scherzo. Wuchtig
[03] III. Andante moderato
[04] IV. Finale. Allegro moderato - Allegro energico
Исполнители:
New York Philharmonic Orchestra - Leonard Bernstein
-

Лог создания рипа

Exact Audio Copy V1.0 beta 3 from 29. August 2011
EAC extraction logfile from 11. October 2014, 18:42
New York Philharmonic - Leonard Bernstein / Mahler - Symphonie Nr.6
Used drive : TSSTcorpCDDVDW SN-208BB Adapter: 0 ID: 1
Read mode : SecureUtilize accurate stream : YesDefeat audio cache : YesMake use of C2 pointers : No
Read offset correction : 6Overread into Lead-In and Lead-Out : NoFill up missing offset samples with silence : YesDelete leading and trailing silent blocks : NoNull samples used in CRC calculations : YesUsed interface : Native Win32 interface for Win NT & 2000
Used output format : User Defined EncoderSelected bitrate : 896 kBit/sQuality : HighAdd ID3 tag : NoCommand line compressor : C:\Program Files (x86)\FLAC\flac.exeAdditional command line options : -T "COMMENT=rip by el coronel" -8 -V %source%
TOC of the extracted CD
Track | Start | Length | Start sector | End sector --------------------------------------------------------- 1 | 0:00.00 | 21:29.62 | 0 | 96736 2 | 21:29.62 | 12:27.33 | 96737 | 152794 3 | 33:57.20 | 15:21.22 | 152795 | 221891 4 | 49:18.42 | 28:39.48 | 221892 | 350864
Range status and errors
Selected range
Filename K:\Music\Mahler 6 Bernstein (NYPO, Bernstein Century)\Mahler - Symphonie Nr.6.wav
Peak level 100.0 % Extraction speed 3.5 X Range quality 99.9 % Test CRC D5EE528D Copy CRC D5EE528D Copy OK
No errors occurred
AccurateRip summary
Track 1 accurately ripped (confidence 4) [30D28787] (AR v1)Track 2 accurately ripped (confidence 4) [9650F2B2] (AR v1)Track 3 accurately ripped (confidence 4) [FEFFAC68] (AR v1)Track 4 accurately ripped (confidence 4) [D791F75A] (AR v1)
All tracks accurately ripped
End of status report
==== Log checksum 9262E8F19FA0FC58D2AF94B19B42F0E4F9ADB1E69BB7AEC16D60BD898A3B7F59 ====

Содержание индексной карты (.CUE)

REM GENRE ClassicalREM DATE 1998REM DISCID 2E124604REM COMMENT "ExactAudioCopy v1.0b3"PERFORMER "New York Philharmonic - Leonard Bernstein"TITLE "Mahler - Symphonie Nr.6"FILE "Mahler - Symphonie Nr.6.flac" WAVE TRACK 01 AUDIO TITLE "I. Allegro energico, ma non troppo - Heftig, aber markig" PERFORMER "New York Philharmonic - Leonard Bernstein" INDEX 01 00:00:00 TRACK 02 AUDIO TITLE "II. Scherzo. Wuchtig" PERFORMER "New York Philharmonic - Leonard Bernstein" INDEX 01 21:29:62 TRACK 03 AUDIO TITLE "III. Andante moderato" PERFORMER "New York Philharmonic - Leonard Bernstein" INDEX 01 33:57:20 TRACK 04 AUDIO TITLE "IV. Finale. Allegro moderato - Allegro energico" PERFORMER "New York Philharmonic - Leonard Bernstein" INDEX 01 49:18:42
-



Показать сообщения:    

Текущее время: 07-Дек 13:40

Часовой пояс: UTC + 3


Вы не можете начинать темы
Вы не можете отвечать на сообщения
Вы не можете редактировать свои сообщения
Вы не можете удалять свои сообщения
Вы не можете голосовать в опросах
Вы не можете прикреплять файлы к сообщениям
Вы не можете скачивать файлы