(Classical) Brahms - Symphony No.2; Mendelssohn - Hebrides Overture (Арнольд Кац; Jahni Mardjani) - 1996, FLAC (image+.cue) lossless


 

[Цитировать]

Brahms - Symphony No.2; Mendelssohn - Hebrides Overture (Арнольд Кац; Jahni Mardjani)
Жанр: Classical
Страна-производитель диска: Italy?
Год издания диска: 1996
Издатель (лейбл): Mazur Media
Номер по каталогу: 37-060603-10
Дата записи: 1996?
Аудиокодек: FLAC
Тип рипа: image+.cue
Битрейт аудио: lossless
Продолжительность: 56:27
Источник: собственный рип
сайт-источник/ник/другое: Из личной коллекции
Наличие сканов в содержимом раздачи: да
Треклист:
1-4. Brahms - Symphony no 2 in D major, Op. 73
5. Mendelssohn - Hebrides Overture, in B minor Op. 26 "Fingal's Cave"
Исполнители:
1-4. Brahms - Symphony no 2 in D major, Op. 73
Conductor: Arnold Kats
Orchestra: Novosibirsk Philharmonic Symphony Orchestra
5. Mendelssohn - Hebrides Overture, in B minor Op. 26 "Fingal's Cave"
Conductor: Jahni Mardjani
Orchestra: Georgian Festival Orchestra

Лог создания рипа

Exact Audio Copy V1.0 beta 3 from 29. August 2011
EAC extraction logfile from 21. November 2014, 21:05
Classical Various / Brahms/Mendelssohn
Used drive : HL-DT-STDVDRAM GSA-T40N Adapter: 0 ID: 0
Read mode : SecureUtilize accurate stream : YesDefeat audio cache : YesMake use of C2 pointers : No
Read offset correction : 667Overread into Lead-In and Lead-Out : NoFill up missing offset samples with silence : YesDelete leading and trailing silent blocks : NoNull samples used in CRC calculations : YesUsed interface : Native Win32 interface for Win NT & 2000
Used output format : User Defined EncoderSelected bitrate : 32 kBit/sQuality : HighAdd ID3 tag : NoCommand line compressor : C:\Program Files\Exact Audio Copy\Flac\flac.exeAdditional command line options : -V -8 -T "Date=%year%" -T "Genre=%genre%" %source%
TOC of the extracted CD
Track | Start | Length | Start sector | End sector --------------------------------------------------------- 1 | 0:00.00 | 21:13.50 | 0 | 95524 2 | 21:13.50 | 9:33.70 | 95525 | 138569 3 | 30:47.45 | 5:16.70 | 138570 | 162339 4 | 36:04.40 | 10:44.25 | 162340 | 210664 5 | 46:48.65 | 9:36.60 | 210665 | 253924
Range status and errors
Selected range
Filename D:\Rip\Brahms.Symphony_No.2-Arnold_Kats;Mendelssohn.Hebrides-Mardjani,1996\Classical Various - Brahms,Mendelssohn.wav
Peak level 91.1 % Extraction speed 4.1 X Range quality 100.0 % Test CRC 4A0248DF Copy CRC 4A0248DF Copy OK
No errors occurred
AccurateRip summary
Track 1 not present in databaseTrack 2 not present in databaseTrack 3 not present in databaseTrack 4 not present in databaseTrack 5 not present in database
None of the tracks are present in the AccurateRip database
End of status report
==== Log checksum 8FE217174317E42FBCE84463CF10F152F6628C9578CA0E02B90EF35ABF67AE52 ====

Содержание индексной карты (.CUE)

REM GENRE ClassicalREM DATE 1996REM DISCID 410D3905REM COMMENT "ExactAudioCopy v1.0b3"PERFORMER "Classical Various"TITLE "Brahms/Mendelssohn"FILE "Classical Various - Brahms,Mendelssohn.flac" WAVE TRACK 01 AUDIO TITLE "Brahms Sym 2 Op 73, I. Allegro non troppo" PERFORMER "Classical Various" INDEX 01 00:00:00 TRACK 02 AUDIO TITLE "Brahms Sym 2 Op 73, II Adagio non Troppo" PERFORMER "Classical Various" INDEX 01 21:13:50 TRACK 03 AUDIO TITLE "Brahms Sym 2 Op 73, III Allegretto grazioso" PERFORMER "Classical Various" INDEX 01 30:47:45 TRACK 04 AUDIO TITLE "Brahms Sym 2 Op 73, IV Allegro con spirito" PERFORMER "Classical Various" INDEX 01 36:04:40 TRACK 05 AUDIO TITLE "Mendelssohn The Hebrides Overture, Op 26" PERFORMER "Classical Various" INDEX 00 46:42:17 INDEX 01 46:48:65



Показать сообщения:    

Текущее время: 11-Дек 14:57

Часовой пояс: UTC + 3


Вы не можете начинать темы
Вы не можете отвечать на сообщения
Вы не можете редактировать свои сообщения
Вы не можете удалять свои сообщения
Вы не можете голосовать в опросах
Вы не можете прикреплять файлы к сообщениям
Вы не можете скачивать файлы