(CLassical) Петр Чайковский - Симфония №5; Сюита из музыки к "Лебединому озеру" - Arctic Philharmonic Orchestra, Christian Lindberg - 2013, FLAC (image+.cue) lossless


 

[Цитировать]

Петр Чайковский - Симфония №5; Сюита из музыки к "Лебединому озеру" - Arctic Philharmonic Orchestra, Christian Lindberg
Жанр: CLassical
Страна-производитель диска: Sweden
Год издания диска: 2013
Издатель (лейбл): BIS
Номер по каталогу: BIS-SACD-2018
Дата записи: 2012, 2013
Аудиокодек: FLAC
Тип рипа: image+.cue
Битрейт аудио: lossless
Продолжительность: 70:48
Источник: собственный рип
Наличие сканов в содержимом раздачи: да
Треклист:
Петр Ильич Чайковский (1840-1893)
[1]-[4] Симфония №5 ми минор, Op. 64
[5]-[10] Сюита из музыки к балету "Лебединое озеро"
Исполнители:
Arctic Philharmonic Orchestra
Christian Lindberg
conductor

Лог создания рипа

Exact Audio Copy V1.0 beta 3 from 29. August 2011
EAC extraction logfile from 21. August 2014, 1:56
Arctic Philharmonic Orchestra, Christian Lindberg / Tchaikovsky - Symphony No.5; Swan Lake Suite
Used drive : HL-DT-STDVDRAM GU70N Adapter: 0 ID: 0
Read mode : SecureUtilize accurate stream : YesDefeat audio cache : YesMake use of C2 pointers : No
Read offset correction : 48Overread into Lead-In and Lead-Out : NoFill up missing offset samples with silence : YesDelete leading and trailing silent blocks : NoNull samples used in CRC calculations : YesUsed interface : Native Win32 interface for Win NT & 2000
Used output format : User Defined EncoderSelected bitrate : 128 kBit/sQuality : HighAdd ID3 tag : NoCommand line compressor : C:\Program Files (x86)\Exact Audio Copy\Flac\flac.exeAdditional command line options : -V -8 -T "Date=%year%" -T "Genre=%genre%" %source%
TOC of the extracted CD
Track | Start | Length | Start sector | End sector --------------------------------------------------------- 1 | 0:00.00 | 13:16.40 | 0 | 59739 2 | 13:16.40 | 12:24.36 | 59740 | 115575 3 | 25:41.01 | 6:03.31 | 115576 | 142831 4 | 31:44.32 | 12:33.50 | 142832 | 199356 5 | 44:18.07 | 2:58.12 | 199357 | 212718 6 | 47:16.19 | 7:09.51 | 212719 | 244944 7 | 54:25.70 | 1:38.52 | 244945 | 252346 8 | 56:04.47 | 6:30.41 | 252347 | 281637 9 | 62:35.13 | 3:05.22 | 281638 | 295534 10 | 65:40.35 | 5:07.42 | 295535 | 318601
Range status and errors
Selected range
Filename C:\temp\BIS-SACD-2018 - Tchaikovsky - Symphony No.5; Swan Lake Suite\Tchaikovsky - Symphony No.5; Swan Lake Suite.wav
Peak level 98.1 % Extraction speed 2.3 X Range quality 100.0 % Test CRC C498AB88 Copy CRC C498AB88 Copy OK
No errors occurred
AccurateRip summary
Track 1 accurately ripped (confidence 1) [AD4BBF43] (AR v2)Track 2 accurately ripped (confidence 1) [7912CFC2] (AR v2)Track 3 accurately ripped (confidence 1) [F37B9447] (AR v2)Track 4 accurately ripped (confidence 1) [F5A4F4CF] (AR v2)Track 5 accurately ripped (confidence 1) [CAB16ED8] (AR v2)Track 6 accurately ripped (confidence 1) [29AC8DA0] (AR v2)Track 7 accurately ripped (confidence 1) [D57D1399] (AR v2)Track 8 accurately ripped (confidence 1) [617142FE] (AR v2)Track 9 accurately ripped (confidence 1) [75DB9D4E] (AR v2)Track 10 accurately ripped (confidence 1) [FE2490A7] (AR v2)
All tracks accurately ripped
End of status report
==== Log checksum A0DF232B1E3133D61C5C5401F9D38E07DA0F321165E0AB792696DA6EE2E2714E ====



Показать сообщения:    

Текущее время: 05-Дек 17:26

Часовой пояс: UTC + 3


Вы не можете начинать темы
Вы не можете отвечать на сообщения
Вы не можете редактировать свои сообщения
Вы не можете удалять свои сообщения
Вы не можете голосовать в опросах
Вы не можете прикреплять файлы к сообщениям
Вы не можете скачивать файлы