(Orchestral) Сергей Рахманинов - Симфонии Nos. 1 & 2, Утёс / Rachmaninov (Rachmaninoff) - Symphonies No. 1 & 2, The Rock (Дмитрий Китаенко, Симфонический оркестр Московской филармонии) 2CD - 2003, FLAC (tracks+.cue) lossless


 

[Цитировать]

Сергей Рахманинов - Симфонии Nos. 1 & 2, Утёс - Китаенко
Жанр: Orchestral
Страна-производитель диска: Россия
Год издания диска: 2003
Издатель (лейбл): Грамзапись / Мелодия
Номер по каталогу: SCD30692
Дата записи: 1986
Аудиокодек: FLAC
Тип рипа: tracks+.cue
Битрейт аудио: lossless
Продолжительность: 58:46+57:51
Источник: allblues
Наличие сканов в содержимом раздачи: да
Треклист:

Сергей Рахманинов (1873-1943)

CD 1
Симфония № 1 ре минор, соч. 13 (1895) 43'59
01. Grave. Allegro ma non troppo
02. II. Allegro animato
03. III. Lerghetto
04. IV. Allegro con fuoco
05. Утёс, фантазия для оркестра, соч. 7 (1893)* 14'47
CD 2
Симфония № 2 ми минор, соч. 27 (1907) 57'51
01. I. Largo. Allegro moderato
02. II. Scherzo. Allegro molto
03. III. Adagio
04. IV. Finale. Allegro vivace
Исполнители:
Академический симфонический оркестр Московской филармонии
Дирижер - Дмитрий Китаенко
Записи 1986, 1984*

Лог создания рипа

CD 1
Exact Audio Copy V1.0 beta 3 from 29. August 2011
EAC extraction logfile from 16. September 2014, 11:09
Sergei Rachmaninov / Disc 1 - Symphony No.1; The Rock
Used drive : ASUS DRW-24B3ST Adapter: 2 ID: 1
Read mode : SecureUtilize accurate stream : YesDefeat audio cache : YesMake use of C2 pointers : No
Read offset correction : 6Overread into Lead-In and Lead-Out : NoFill up missing offset samples with silence : YesDelete leading and trailing silent blocks : NoNull samples used in CRC calculations : YesUsed interface : Native Win32 interface for Win NT & 2000Gap handling : Appended to previous track
Used output format : User Defined EncoderSelected bitrate : 128 kBit/sQuality : HighAdd ID3 tag : NoCommand line compressor : J:\Programs\Exact Audio Copy\Flac\flac.exeAdditional command line options : -V -8 -T "Genre=%genre%" -T "Artist=%artist%" -T "Title=%title%" -T "Album=%albumtitle%" -T "Date=%year%" -T "Tracknumber=%tracknr%" -T "Comment=%comment%" %source%
TOC of the extracted CD
Track | Start | Length | Start sector | End sector --------------------------------------------------------- 1 | 0:00.00 | 12:58.47 | 0 | 58396 2 | 12:58.47 | 8:24.63 | 58397 | 96259 3 | 21:23.35 | 10:21.35 | 96260 | 142869 4 | 31:44.70 | 12:16.50 | 142870 | 198119 5 | 44:01.45 | 14:47.31 | 198120 | 264675
Track 1
Filename J:\Torrent\Rachmaninov - Gold Symphonies (2003)\Disc 1 - Symphony No.1; The Rock\01. Symphony No. 1, Op. 13; Grave. Allegro ma non troppo.wav
Pre-gap length 0:00:02.00
Peak level 91.2 % Extraction speed 4.7 X Track quality 100.0 % Test CRC 50D06F5A Copy CRC 50D06F5A Track not present in AccurateRip database Copy OK
Track 2
Filename J:\Torrent\Rachmaninov - Gold Symphonies (2003)\Disc 1 - Symphony No.1; The Rock\02. Symphony No. 1, Op. 13; Allegro animato.wav
Pre-gap length 0:00:02.02
Peak level 91.1 % Extraction speed 5.5 X Track quality 100.0 % Test CRC 7E368711 Copy CRC 7E368711 Track not present in AccurateRip database Copy OK
Track 3
Filename J:\Torrent\Rachmaninov - Gold Symphonies (2003)\Disc 1 - Symphony No.1; The Rock\03. Symphony No. 1, Op. 13; Lerghetto.wav
Pre-gap length 0:00:02.02
Peak level 88.9 % Extraction speed 5.7 X Track quality 99.9 % Test CRC CE9ECED4 Copy CRC CE9ECED4 Track not present in AccurateRip database Copy OK
Track 4
Filename J:\Torrent\Rachmaninov - Gold Symphonies (2003)\Disc 1 - Symphony No.1; The Rock\04. Symphony No. 1, Op. 13; Allegro con fuoco.wav
Pre-gap length 0:00:02.02
Peak level 91.2 % Extraction speed 7.0 X Track quality 100.0 % Test CRC 8857BD89 Copy CRC 8857BD89 Track not present in AccurateRip database Copy OK
Track 5
Filename J:\Torrent\Rachmaninov - Gold Symphonies (2003)\Disc 1 - Symphony No.1; The Rock\05. The Rock, Fantasia for Large Orchestra, Op. 7.wav
Pre-gap length 0:00:02.02
Peak level 91.2 % Extraction speed 7.3 X Track quality 99.9 % Test CRC 4A60BFD6 Copy CRC 4A60BFD6 Track not present in AccurateRip database Copy OK
None of the tracks are present in the AccurateRip database
No errors occurred
End of status report
==== Log checksum A21CF6DC2EAEBAC9F21940DAF3405D4F10ADA774E1B10B8FB9338ABEFF8AB0AC ====
CD 2
Exact Audio Copy V1.0 beta 3 from 29. August 2011
EAC extraction logfile from 16. September 2014, 11:34
Sergei Rachmaninov / Disc 2 - Symphony No.2 in E minor, Op.27
Used drive : ASUS DRW-24B3ST Adapter: 2 ID: 1
Read mode : SecureUtilize accurate stream : YesDefeat audio cache : YesMake use of C2 pointers : No
Read offset correction : 6Overread into Lead-In and Lead-Out : NoFill up missing offset samples with silence : YesDelete leading and trailing silent blocks : NoNull samples used in CRC calculations : YesUsed interface : Native Win32 interface for Win NT & 2000Gap handling : Appended to previous track
Used output format : User Defined EncoderSelected bitrate : 128 kBit/sQuality : HighAdd ID3 tag : NoCommand line compressor : J:\Programs\Exact Audio Copy\Flac\flac.exeAdditional command line options : -V -8 -T "Genre=%genre%" -T "Artist=%artist%" -T "Title=%title%" -T "Album=%albumtitle%" -T "Date=%year%" -T "Tracknumber=%tracknr%" -T "Comment=%comment%" %source%
TOC of the extracted CD
Track | Start | Length | Start sector | End sector --------------------------------------------------------- 1 | 0:00.00 | 22:33.25 | 0 | 101499 2 | 22:33.25 | 8:47.38 | 101500 | 141062 3 | 31:20.63 | 14:48.12 | 141063 | 207674 4 | 46:09.00 | 11:43.13 | 207675 | 260412
Track 1
Filename J:\Torrent\Rachmaninov - Gold Symphonies (2003)\Disc 2 - Symphony No.2 in E minor, Op.27\01. Symphony No.2 in E minor, Op.27 - 1. Largo. Allegro moderato.wav
Pre-gap length 0:00:02.00
Peak level 66.0 % Extraction speed 5.2 X Track quality 100.0 % Test CRC 92080FEE Copy CRC 92080FEE Cannot be verified as accurate (confidence 1) [4396F123], AccurateRip returned [E8731B42] (AR v2) Copy OK
Track 2
Filename J:\Torrent\Rachmaninov - Gold Symphonies (2003)\Disc 2 - Symphony No.2 in E minor, Op.27\02. Symphony No.2 in E minor, Op.27 - 2. Scherzo. Allegro molto.wav
Peak level 72.4 % Extraction speed 5.4 X Track quality 99.9 % Test CRC BFF67B6B Copy CRC BFF67B6B Cannot be verified as accurate (confidence 1) [B89043D3], AccurateRip returned [3591719A] (AR v2) Copy OK
Track 3
Filename J:\Torrent\Rachmaninov - Gold Symphonies (2003)\Disc 2 - Symphony No.2 in E minor, Op.27\03. Symphony No.2 in E minor, Op.27 - 3. Adagio.wav
Peak level 75.8 % Extraction speed 7.1 X Track quality 100.0 % Test CRC EE4BC426 Copy CRC EE4BC426 Accurately ripped (confidence 1) [DBAA1124] (AR v1) Copy OK
Track 4
Filename J:\Torrent\Rachmaninov - Gold Symphonies (2003)\Disc 2 - Symphony No.2 in E minor, Op.27\04. Symphony No.2 in E minor, Op.27 - 4. Finale. Allegro vivace.wav
Peak level 75.8 % Extraction speed 7.0 X Track quality 99.9 % Test CRC 3CA9AE26 Copy CRC 3CA9AE26 Accurately ripped (confidence 1) [4313BBDA] (AR v1) Copy OK
2 track(s) accurately ripped 2 track(s) could not be verified as accurate
Some tracks could not be verified as accurate
No errors occurred
End of status report
==== Log checksum CDFF82DC9A9278F9D2ADD89276C5AAF275C1BACC5E6657A16A864C9D74436E27 ====

Содержание индексной карты (.CUE)

CD 1
REM GENRE ClassicalREM DATE 2003REM DISCID 400DC905REM COMMENT "ExactAudioCopy v1.0b3"PERFORMER "Sergei Rachmaninov"TITLE "Disc 1 - Symphony No.1; The Rock"FILE "01. Symphony No. 1, Op. 13; Grave. Allegro ma non troppo.wav" WAVE TRACK 01 AUDIO TITLE "Symphony No. 1, Op. 13; Grave. Allegro ma non troppo" PERFORMER "Sergei Rachmaninov" INDEX 01 00:00:00 TRACK 02 AUDIO TITLE "Symphony No. 1, Op. 13; Allegro animato" PERFORMER "Sergei Rachmaninov" INDEX 00 12:56:45FILE "02. Symphony No. 1, Op. 13; Allegro animato.wav" WAVE INDEX 01 00:00:00 TRACK 03 AUDIO TITLE "Symphony No. 1, Op. 13; Lerghetto" PERFORMER "Sergei Rachmaninov" INDEX 00 08:22:61FILE "03. Symphony No. 1, Op. 13; Lerghetto.wav" WAVE INDEX 01 00:00:00 TRACK 04 AUDIO TITLE "Symphony No. 1, Op. 13; Allegro con fuoco" PERFORMER "Sergei Rachmaninov" INDEX 00 10:19:33FILE "04. Symphony No. 1, Op. 13; Allegro con fuoco.wav" WAVE INDEX 01 00:00:00 TRACK 05 AUDIO TITLE "The Rock, Fantasia for Large Orchestra, Op. 7" PERFORMER "Sergei Rachmaninov" INDEX 00 12:14:48FILE "05. The Rock, Fantasia for Large Orchestra, Op. 7.wav" WAVE INDEX 01 00:00:00
CD 2
REM GENRE SymphonyREM DATE 2003REM DISCID 340D9004REM COMMENT "ExactAudioCopy v1.0b3"PERFORMER "Sergei Rachmaninov"TITLE "Disc 2 - Symphony No.2 in E minor, Op.27"FILE "01. Symphony No.2 in E minor, Op.27 - 1. Largo. Allegro moderato.wav" WAVE TRACK 01 AUDIO TITLE "Symphony No.2 in E minor, Op.27 - 1. Largo. Allegro moderato" PERFORMER "Sergei Rachmaninov" INDEX 01 00:00:00FILE "02. Symphony No.2 in E minor, Op.27 - 2. Scherzo. Allegro molto.wav" WAVE TRACK 02 AUDIO TITLE "Symphony No.2 in E minor, Op.27 - 2. Scherzo. Allegro molto" PERFORMER "Sergei Rachmaninov" INDEX 01 00:00:00FILE "03. Symphony No.2 in E minor, Op.27 - 3. Adagio.wav" WAVE TRACK 03 AUDIO TITLE "Symphony No.2 in E minor, Op.27 - 3. Adagio" PERFORMER "Sergei Rachmaninov" INDEX 01 00:00:00FILE "04. Symphony No.2 in E minor, Op.27 - 4. Finale. Allegro vivace.wav" WAVE TRACK 04 AUDIO TITLE "Symphony No.2 in E minor, Op.27 - 4. Finale. Allegro vivace" PERFORMER "Sergei Rachmaninov" INDEX 01 00:00:00
Доп. информация: Записи симфоний Сергея Васильевича Рахманинова, сделанные дирижёром Дмитрием Китаенко в содружестве с Московским филармоническим оркестром в 1986 году - одни из лучших его работ того времени. Удивительно - с подкупающей простотой и колоритом звучит оркестр, сама драматургия симфонических произведений Рахманинова выявлена с неподдельной изысканностью и эмоцией. Отточенный, филигранный, плавный и полный экспрессии исполнительский стиль Дмитрия Георгиевича прекрасно передаёт музыку и её содержание. Лишённые монументальности и помпезной тяжеловестности, коими многие иногда грешили, рахманиновские образы приобрели лёгкость, искренность и нежность, засверкали неожиданными тембрами и оттенками. Облик дирижёра и его дирижирование в полном смысле слова эстетически красиво - всё точно, ничего лишнего. А великолепный кондрашинский оркестр под руками маэстро "живёт" и "дышит".
Симфония № 3 - http://teatrix.ru/viewtopic.php?t=7773



Показать сообщения:    

Текущее время: 08-Дек 19:05

Часовой пояс: UTC + 3


Вы не можете начинать темы
Вы не можете отвечать на сообщения
Вы не можете редактировать свои сообщения
Вы не можете удалять свои сообщения
Вы не можете голосовать в опросах
Вы не можете прикреплять файлы к сообщениям
Вы не можете скачивать файлы