(Classical) Aram Khachaturian / Хачатурян - Сюиты из Спартака, Гаянэ; Маскарад; Ippolitov-Ivanov / М. Ипполитов-Иванов - Кавказские эскизы (Loris Tjeknavorian, Armenian Philharmonic Orchestra) - 1991, FLAC (tracks+.cue) lossless


 

[Цитировать]

Aram Ilyich Khachaturian / Хачатурян - Spartacus, Gayaneh, Masquerade; Ippolitov-Ivanov / М. Ипполитов-Иванов - Caucasian Sketches (Loris Tjeknavorian, Armenian Philharmonic Orchestra)
Жанр: Classical
Год издания диска: 1991
Издатель (лейбл): ASV
Номер по каталогу: 773
Дата записи:
Аудиокодек: FLAC
Тип рипа: tracks+.cue
Битрейт аудио: lossless
Продолжительность: 01:15:57
Источник: собственный рип
Наличие сканов в содержимом раздачи: да
Исполнители:
Yuri Boghosian - violin (7)
Armen Mesrobian - cello (16)
Armenian Philharmonic Orchestra
Loris Tjeknavorian
Треклист:
Aram Khachaturian
Gayaneh - suite
1 - I. Sabre Dance
2 - II. Dance of the Young Maidens
3 - III. Mountaineers' Dance
4 - IV. Lullaby
5 - V. Lezghinka
Masquerade - suite
6 - I. Waltz
7 - II. Nocturne
8 - III. Mazurka
9 - IV. Romance
10 - V. Galop
Spartacus - suite
11 - I. Variation of Aegina and Bacchanalia
12 - II. Scene and Dance with Crotalums
13 - III. Adagio of Sprtacus and Phrygia
14 - IV. Dance of Gaditanae and Victory of Spartacus
Mikhail Ippolitov-Ivanov
Caucasian Sketches, Op. 10
15 - 1. In the Mountain Pass
16 - 2. In the Village
17 - 3. In the Mosque
18 - 4. Procession of the Sardar

LOG EAC:

Exact Audio Copy V1.0 beta 3 from 29. August 2011
EAC extraction logfile from 19. November 2014, 22:58
Tjeknavorian; Armenian Philharmonic Orchestra / Khachaturian: Spartacus, Gayaneh, Masquerade - Ippolitov-Ivanov: Caucasian Sketches
Used drive : PIONEER DVD-RW DVR-221L Adapter: 2 ID: 0
Read mode : SecureUtilize accurate stream : YesDefeat audio cache : YesMake use of C2 pointers : No
Read offset correction : 6Overread into Lead-In and Lead-Out : NoFill up missing offset samples with silence : YesDelete leading and trailing silent blocks : NoNull samples used in CRC calculations : YesUsed interface : Native Win32 interface for Win NT & 2000Gap handling : Appended to previous track
Used output format : User Defined EncoderSelected bitrate : 768 kBit/sQuality : HighAdd ID3 tag : NoCommand line compressor : C:\Program Files\Exact Audio Copy\Flac\flac.exeAdditional command line options : -6 -V -T "ARTIST=%artist%" -T "TITLE=%title%" -T "ALBUM=%albumtitle%" -T "DATE=%year%" -T "TRACKNUMBER=%tracknr%" -T "GENRE=%genre%" -T "COMMENT=%comment%" -T "ALBUMARTIST=%albuminterpret%" -T "COMPOSER=%composer%" -T "DISCNUMBER=%cdnumber%" -T "TOTALDISCS=%totalcds%" -T "TOTALTRACKS=%numtracks%" %source% -o %dest%
TOC of the extracted CD
Track | Start | Length | Start sector | End sector --------------------------------------------------------- 1 | 0:00.00 | 2:25.62 | 0 | 10936 2 | 2:25.62 | 2:21.38 | 10937 | 21549 3 | 4:47.25 | 1:38.62 | 21550 | 28961 4 | 6:26.12 | 5:08.53 | 28962 | 52114 5 | 11:34.65 | 2:30.42 | 52115 | 63406 6 | 14:05.32 | 4:12.43 | 63407 | 82349 7 | 18:18.00 | 4:22.62 | 82350 | 102061 8 | 22:40.62 | 2:34.33 | 102062 | 113644 9 | 25:15.20 | 3:35.00 | 113645 | 129769 10 | 28:50.20 | 2:50.22 | 129770 | 142541 11 | 31:40.42 | 3:09.05 | 142542 | 156721 12 | 34:49.47 | 4:06.60 | 156722 | 175231 13 | 38:56.32 | 9:01.40 | 175232 | 215846 14 | 47:57.72 | 7:32.38 | 215847 | 249784 15 | 55:30.35 | 8:26.37 | 249785 | 287771 16 | 63:56.72 | 4:36.20 | 287772 | 308491 17 | 68:33.17 | 3:51.28 | 308492 | 325844 18 | 72:24.45 | 3:34.60 | 325845 | 341954
Track 1
Filename D:\EAC\01 - Khachaturian - Gayaneh. Suite - Sabre Dance.wav
Pre-gap length 0:00:02.00
Peak level 84.4 % Extraction speed 4.5 X Track quality 100.0 % Test CRC D38B17C6 Copy CRC D38B17C6 Cannot be verified as accurate (confidence 3) [15110548], AccurateRip returned [B02F01B5] (AR v2) Copy OK
Track 2
Filename D:\EAC\02 - Dance of the Young Maidens.wav
Peak level 78.6 % Extraction speed 4.7 X Track quality 100.0 % Test CRC CD1B53BF Copy CRC CD1B53BF Cannot be verified as accurate (confidence 3) [27625AA0], AccurateRip returned [EDF5BCB6] (AR v2) Copy OK
Track 3
Filename D:\EAC\03 - Mountaineers' Dance.wav
Peak level 92.6 % Extraction speed 4.4 X Track quality 100.0 % Test CRC F6BA7846 Copy CRC F6BA7846 Cannot be verified as accurate (confidence 3) [04197E12], AccurateRip returned [6638D81E] (AR v2) Copy OK
Track 4
Filename D:\EAC\04 - Lullaby.wav
Peak level 53.1 % Extraction speed 5.8 X Track quality 100.0 % Test CRC D612EF09 Copy CRC D612EF09 Cannot be verified as accurate (confidence 3) [07084916], AccurateRip returned [E59B5798] (AR v2) Copy OK
Track 5
Filename D:\EAC\05 - Lezghinka.wav
Peak level 96.4 % Extraction speed 5.6 X Track quality 100.0 % Test CRC 47AE4759 Copy CRC 47AE4759 Cannot be verified as accurate (confidence 3) [C091CC12], AccurateRip returned [96F04B38] (AR v2) Copy OK
Track 6
Filename D:\EAC\06 - Masquerade. Suite - Waltz.wav
Peak level 85.6 % Extraction speed 6.4 X Track quality 100.0 % Test CRC 77869D20 Copy CRC 77869D20 Cannot be verified as accurate (confidence 3) [9D9A6585], AccurateRip returned [923F2950] (AR v2) Copy OK
Track 7
Filename D:\EAC\07 - Nocturne.wav
Peak level 26.5 % Extraction speed 6.8 X Track quality 100.0 % Test CRC E6C1355C Copy CRC E6C1355C Cannot be verified as accurate (confidence 3) [1AB65661], AccurateRip returned [03756A9C] (AR v2) Copy OK
Track 8
Filename D:\EAC\08 - Mazurka.wav
Peak level 80.8 % Extraction speed 6.5 X Track quality 100.0 % Test CRC 55D170E8 Copy CRC 55D170E8 Cannot be verified as accurate (confidence 3) [C7D1E3CC], AccurateRip returned [45DF9E72] (AR v2) Copy OK
Track 9
Filename D:\EAC\09 - Romance.wav
Peak level 42.0 % Extraction speed 7.0 X Track quality 100.0 % Test CRC 69D39213 Copy CRC 69D39213 Cannot be verified as accurate (confidence 3) [7541B6C1], AccurateRip returned [0AFD2886] (AR v2) Copy OK
Track 10
Filename D:\EAC\10 - Galop.wav
Peak level 87.3 % Extraction speed 5.4 X Track quality 99.9 % Test CRC 62832146 Copy CRC 62832146 Cannot be verified as accurate (confidence 3) [C3F5A5E4], AccurateRip returned [C5A2FD37] (AR v2) Copy OK
Track 11
Filename D:\EAC\11 - Spartacus. Suite - Variation of Aegina and Bacchanalia.wav
Peak level 91.2 % Extraction speed 7.4 X Track quality 100.0 % Test CRC 79143947 Copy CRC 79143947 Cannot be verified as accurate (confidence 3) [72762C3E], AccurateRip returned [CAB72591] (AR v2) Copy OK
Track 12
Filename D:\EAC\12 - Scene and Dance with Crotalums.wav
Peak level 88.9 % Extraction speed 8.0 X Track quality 100.0 % Test CRC 4BD08B7E Copy CRC 4BD08B7E Cannot be verified as accurate (confidence 3) [74015EDA], AccurateRip returned [1AD77E3B] (AR v2) Copy OK
Track 13
Filename D:\EAC\13 - Adagio of Spartacus and Phrygia.wav
Peak level 95.2 % Extraction speed 9.1 X Track quality 100.0 % Test CRC 66FAB562 Copy CRC 66FAB562 Cannot be verified as accurate (confidence 3) [EBE17D41], AccurateRip returned [0FC64F64] (AR v2) Copy OK
Track 14
Filename D:\EAC\14 - Dance of Gaditanae and Victory of Spartacus.wav
Peak level 93.1 % Extraction speed 8.5 X Track quality 99.9 % Test CRC 653AE4E1 Copy CRC 653AE4E1 Cannot be verified as accurate (confidence 3) [468363EF], AccurateRip returned [0846DD92] (AR v2) Copy OK
Track 15
Filename D:\EAC\15 - Ippolitov-Ivanov - Caucasian Sketches, Suite Op.10, No. 1 - In the Mountain Pass.wav
Peak level 65.7 % Extraction speed 10.1 X Track quality 100.0 % Test CRC 8829C155 Copy CRC 8829C155 Cannot be verified as accurate (confidence 3) [50F19AC9], AccurateRip returned [5D2D139E] (AR v2) Copy OK
Track 16
Filename D:\EAC\16 - In the Village.wav
Peak level 22.6 % Extraction speed 10.0 X Track quality 100.0 % Test CRC 4767E9D6 Copy CRC 4767E9D6 Cannot be verified as accurate (confidence 3) [D810ADA4], AccurateRip returned [85639CC9] (AR v2) Copy OK
Track 17
Filename D:\EAC\17 - In the Mosque.wav
Peak level 26.1 % Extraction speed 8.0 X Track quality 99.9 % Test CRC 38D2C277 Copy CRC 38D2C277 Cannot be verified as accurate (confidence 3) [D229DCA4], AccurateRip returned [8C01C332] (AR v2) Copy OK
Track 18
Filename D:\EAC\18 - Procession of the Sardar.wav
Peak level 95.5 % Extraction speed 8.0 X Track quality 99.9 % Test CRC C4BE0695 Copy CRC C4BE0695 Cannot be verified as accurate (confidence 3) [3462B0E5], AccurateRip returned [E33B7E9A] (AR v2) Copy OK
No tracks could be verified as accurateYou may have a different pressing from the one(s) in the database
No errors occurred
End of status report
==== Log checksum 1729CAAECAC0C94D3CEC608BEC9E75138E992A375FBB7348ED66759C212F4BFC ====

LOG (.CUE):

REM GENRE ClassicalREM DATE 2008REM DISCID 0511CF12REM COMMENT "ExactAudioCopy v1.0b3"PERFORMER "Tjeknavorian; Armenian Philharmonic Orchestra"TITLE "Khachaturian: Spartacus, Gayaneh, Masquerade - Ippolitov-Ivanov: Caucasian Sk..."FILE "01 - Khachaturian - Gayaneh. Suite - Sabre Dance.wav" WAVE TRACK 01 AUDIO TITLE "Khachaturian - Gayaneh. Suite - Sabre Dance" PERFORMER "Tjeknavorian; Armenian Philharmonic Orchestra" INDEX 01 00:00:00FILE "02 - Dance of the Young Maidens.wav" WAVE TRACK 02 AUDIO TITLE "Dance of the Young Maidens" PERFORMER "Tjeknavorian; Armenian Philharmonic Orchestra" INDEX 01 00:00:00FILE "03 - Mountaineers' Dance.wav" WAVE TRACK 03 AUDIO TITLE "Mountaineers' Dance" PERFORMER "Tjeknavorian; Armenian Philharmonic Orchestra" INDEX 01 00:00:00FILE "04 - Lullaby.wav" WAVE TRACK 04 AUDIO TITLE "Lullaby" PERFORMER "Tjeknavorian; Armenian Philharmonic Orchestra" INDEX 01 00:00:00FILE "05 - Lezghinka.wav" WAVE TRACK 05 AUDIO TITLE "Lezghinka" PERFORMER "Tjeknavorian; Armenian Philharmonic Orchestra" INDEX 01 00:00:00FILE "06 - Masquerade. Suite - Waltz.wav" WAVE TRACK 06 AUDIO TITLE "Masquerade. Suite - Waltz" PERFORMER "Tjeknavorian; Armenian Philharmonic Orchestra" INDEX 01 00:00:00FILE "07 - Nocturne.wav" WAVE TRACK 07 AUDIO TITLE "Nocturne" PERFORMER "Tjeknavorian; Armenian Philharmonic Orchestra" INDEX 01 00:00:00FILE "08 - Mazurka.wav" WAVE TRACK 08 AUDIO TITLE "Mazurka" PERFORMER "Tjeknavorian; Armenian Philharmonic Orchestra" INDEX 01 00:00:00FILE "09 - Romance.wav" WAVE TRACK 09 AUDIO TITLE "Romance" PERFORMER "Tjeknavorian; Armenian Philharmonic Orchestra" INDEX 01 00:00:00FILE "10 - Galop.wav" WAVE TRACK 10 AUDIO TITLE "Galop" PERFORMER "Tjeknavorian; Armenian Philharmonic Orchestra" INDEX 01 00:00:00FILE "11 - Spartacus. Suite - Variation of Aegina and Bacchanalia.wav" WAVE TRACK 11 AUDIO TITLE "Spartacus. Suite - Variation of Aegina and Bacchanalia" PERFORMER "Tjeknavorian; Armenian Philharmonic Orchestra" INDEX 01 00:00:00FILE "12 - Scene and Dance with Crotalums.wav" WAVE TRACK 12 AUDIO TITLE "Scene and Dance with Crotalums" PERFORMER "Tjeknavorian; Armenian Philharmonic Orchestra" INDEX 01 00:00:00FILE "13 - Adagio of Spartacus and Phrygia.wav" WAVE TRACK 13 AUDIO TITLE "Adagio of Spartacus and Phrygia" PERFORMER "Tjeknavorian; Armenian Philharmonic Orchestra" INDEX 01 00:00:00FILE "14 - Dance of Gaditanae and Victory of Spartacus.wav" WAVE TRACK 14 AUDIO TITLE "Dance of Gaditanae and Victory of Spartacus" PERFORMER "Tjeknavorian; Armenian Philharmonic Orchestra" INDEX 01 00:00:00FILE "15 - Ippolitov-Ivanov - Caucasian Sketches, Suite Op.10, No. 1 - In the Mountain Pass.wav" WAVE TRACK 15 AUDIO TITLE "Ippolitov-Ivanov - Caucasian Sketches, Suite Op.10, No. 1 - In the Mountain P..." PERFORMER "Tjeknavorian; Armenian Philharmonic Orchestra" INDEX 01 00:00:00FILE "16 - In the Village.wav" WAVE TRACK 16 AUDIO TITLE "In the Village" PERFORMER "Tjeknavorian; Armenian Philharmonic Orchestra" INDEX 01 00:00:00FILE "17 - In the Mosque.wav" WAVE TRACK 17 AUDIO TITLE "In the Mosque" PERFORMER "Tjeknavorian; Armenian Philharmonic Orchestra" INDEX 01 00:00:00FILE "18 - Procession of the Sardar.wav" WAVE TRACK 18 AUDIO TITLE "Procession of the Sardar" PERFORMER "Tjeknavorian; Armenian Philharmonic Orchestra" INDEX 01 00:00:00
Внимание, торрент-файл перезалит 19.11.2014 23:10 МСК, исправлены ошибки, просьба перекачать торрент-файл заново.



Показать сообщения:    

Текущее время: 03-Дек 01:16

Часовой пояс: UTC + 3


Вы не можете начинать темы
Вы не можете отвечать на сообщения
Вы не можете редактировать свои сообщения
Вы не можете удалять свои сообщения
Вы не можете голосовать в опросах
Вы не можете прикреплять файлы к сообщениям
Вы не можете скачивать файлы