(Classical/Minimalism) Филип Гласс / Philip Glass - Symphony No.4 'Heroes' [from the music of David Bowie and Brian Eno] (Dennis Russel Davies) - 2014, FLAC (image+.cue) lossless


 

[Цитировать]

Philip Glass - Symphony No.4
Жанр: Classical/Minimalism
Страна-производитель диска: USA
Год издания диска: 2014
Издатель (лейбл): Orange Mountain Music
Номер по каталогу: 0096
Дата записи: 10&12.IX.2012
Аудиокодек: FLAC
Тип рипа: image+.cue
Битрейт аудио: lossless
Продолжительность: 50'15"
Источник: собственный рип
Наличие сканов в содержимом раздачи: да
Треклист:
Symphony No.4 'Heroes' from the music of David Bowie and Brian Eno
1. I. Heroes
2. II. Abdulmajid
3. III. Sense of Doubt
4. IV. Sons of the Silent Age
5. V. Neukoln
6. VI. V2 Schneider
Исполнители:
Sinfonieorchester Basel
Dennis Russel Davies-

Лог создания рипа

Exact Audio Copy V1.0 beta 1 from 15. November 2010
EAC extraction logfile from 15. November 2014, 21:12
Philip Glass / Symphony No.4 'Heroes'
Used drive : Optiarc DVD RW AD-7203A Adapter: 4 ID: 1
Read mode : SecureUtilize accurate stream : YesDefeat audio cache : YesMake use of C2 pointers : No
Read offset correction : 48Overread into Lead-In and Lead-Out : NoFill up missing offset samples with silence : YesDelete leading and trailing silent blocks : NoNull samples used in CRC calculations : YesUsed interface : Native Win32 interface for Win NT & 2000
Used output format : User Defined EncoderSelected bitrate : 128 kBit/sQuality : HighAdd ID3 tag : NoCommand line compressor : C:\Program Files\FLAC\flac.exeAdditional command line options : -T "COMMENT=Ripped by GFox" -8 -V %s
TOC of the extracted CD
Track | Start | Length | Start sector | End sector --------------------------------------------------------- 1 | 0:00.00 | 9:28.28 | 0 | 42627 2 | 9:28.28 | 9:24.48 | 42628 | 84975 3 | 18:53.01 | 7:29.18 | 84976 | 118668 4 | 26:22.19 | 8:37.20 | 118669 | 157463 5 | 34:59.39 | 7:58.47 | 157464 | 193360 6 | 42:58.11 | 7:17.38 | 193361 | 226173
Range status and errors
Selected range
Filename D:\EAC\Philip Glass - Symphony No.4 'Heroes'.wav
Peak level 95.5 % Extraction speed 0.5 X Range quality 100.0 % Test CRC 947534D2 Copy CRC 947534D2 Copy OK
No errors occurred
AccurateRip summary
Track 1 accurately ripped (confidence 1) [7F5CDDF3]Track 2 accurately ripped (confidence 1) [DBB4F7D3]Track 3 accurately ripped (confidence 1) [F1A5C85A]Track 4 accurately ripped (confidence 1) [A617695D]Track 5 accurately ripped (confidence 1) [C12425D1]Track 6 accurately ripped (confidence 1) [A462EE29]
All tracks accurately ripped
End of status report
==== Log checksum FC3A7F0E9CB8082BDB2CF533E847A33E4A923F36784F318269BB5E202A550190 ====
-Доп. информация: Свежая запись четвертой симфонии Гласса.-(minimalism) Филип Гласс / Philip Glass - Symphony No.10 / Concert Overture (Dennis Russell Davies) - 2015, FLAC (tracks) lossless



Показать сообщения:    

Текущее время: 02-Дек 21:10

Часовой пояс: UTC + 3


Вы не можете начинать темы
Вы не можете отвечать на сообщения
Вы не можете редактировать свои сообщения
Вы не можете удалять свои сообщения
Вы не можете голосовать в опросах
Вы не можете прикреплять файлы к сообщениям
Вы не можете скачивать файлы