(classical) Gustav Mahler: Symphony No. 1 (Vladimir Jurowski/Владимир Юровский) - 2013, FLAC (tracks+.cue) lossless


 

[Цитировать]

Gustav Mahler: Symphony No. 1 including original ‘Blumine’ movement (Vladimir Jurowski/Владимир Юровский, London Philharmonic Orchestra)
Жанр: classical
Год издания диска: 2013
Издатель (лейбл): LPO
Номер по каталогу: LPO0070
Аудиокодек: FLAC
Тип рипа: tracks+.cue
Битрейт аудио: lossless
Продолжительность: 60 минут
Источник: собственный рип
Треклист:
I. Langsam, schleppend 15:56
II. Blumine 6:48
III. Kraftig bewegt, doch nicht zu schnell 8:16
IV. Feierlich und gemessen, ohne zu schleppen 10:17
V. Sturmisch bewegt 19:34
Исполнители:
London Philharmonic Orchestra
Conductor: Vladimir Jurowski

Лог создания рипа

X Lossless Decoder version 20141109 (148.0)
XLD extraction logfile from 2014-11-14 21:03:49 +0500
Vladimir Jurowski/Владимир Юровский: London Philharmonic Orchestra / Mahler: Symphony No. 1
Used drive : ASUS SBW-06D2X-U (revision D501)Media type : Pressed CD
Ripper mode : XLD Secure RipperDisable audio cache : OK for the drive with a cache less than 1375KiBMake use of C2 pointers : NORead offset correction : 103Max retry count : 20Gap status : Analyzed, Appended (except HTOA)
TOC of the extracted CD Track | Start | Length | Start sector | End sector --------------------------------------------------------- 1 | 00:00:00 | 15:56:33 | 0 | 71732 2 | 15:56:33 | 06:48:05 | 71733 | 102337 3 | 22:44:38 | 08:16:27 | 102338 | 139564 4 | 31:00:65 | 10:17:09 | 139565 | 185848 5 | 41:17:74 | 19:34:13 | 185849 | 273911
AccurateRip Summary (DiscID: 000bcd15-0036a612-4f0e4405) Track 01 : OK (v2, confidence 2/2) Track 02 : OK (v2, confidence 2/2) Track 03 : OK (v2, confidence 2/2) Track 04 : OK (v2, confidence 2/2) Track 05 : OK (v2, confidence 2/2) ->All tracks accurately ripped.
All Tracks Statistics Read error : 0 Jitter error (maybe fixed) : 0 Retry sector count : 0 Damaged sector count : 0
Track 01 Filename : /Volumes/Andy HD2/XLD/Mahler - Symphony No.1 (Vladimir Jurowski)/01.01 Vladimir Jurowski. London Philharmonic Orchestra - Symphony No. 1 In D Major, "Titan" - I. Langsam, Schleppend.flac Pre-gap length : 00:02:00
CRC32 hash : 77492D1F CRC32 hash (skip zero) : 6FFB8517 AccurateRip v1 signature : E52A42C5 AccurateRip v2 signature : 59A805FD ->Accurately ripped (v2, confidence 2/2) Statistics Read error : 0 Jitter error (maybe fixed) : 0 Retry sector count : 0 Damaged sector count : 0
Track 02 Filename : /Volumes/Andy HD2/XLD/Mahler - Symphony No.1 (Vladimir Jurowski)/01.02 Vladimir Jurowski. London Philharmonic Orchestra - Symphony No. 1 In D Major, "Titan" - II. Blumine.flac
CRC32 hash : 01872A37 CRC32 hash (skip zero) : 192DE25C AccurateRip v1 signature : 626B428C AccurateRip v2 signature : A2CC756C ->Accurately ripped (v2, confidence 2/2) Statistics Read error : 0 Jitter error (maybe fixed) : 0 Retry sector count : 0 Damaged sector count : 0
Track 03 Filename : /Volumes/Andy HD2/XLD/Mahler - Symphony No.1 (Vladimir Jurowski)/01.03 Vladimir Jurowski. London Philharmonic Orchestra - Symphony No. 1 In D Major, "Titan" - III. Kraftig Bewegt, Doch Nicht Zu Schnell.flac
CRC32 hash : 57C065B8 CRC32 hash (skip zero) : 258745AA AccurateRip v1 signature : 84A00127 AccurateRip v2 signature : E0CDF56A ->Accurately ripped (v2, confidence 2/2) Statistics Read error : 0 Jitter error (maybe fixed) : 0 Retry sector count : 0 Damaged sector count : 0
Track 04 Filename : /Volumes/Andy HD2/XLD/Mahler - Symphony No.1 (Vladimir Jurowski)/01.04 Vladimir Jurowski. London Philharmonic Orchestra - Symphony No. 1 In D Major, "Titan" - IV. Feierlich Und Gemessen, Ohne Zu Schleppen.flac
CRC32 hash : 45B52155 CRC32 hash (skip zero) : 459CB707 AccurateRip v1 signature : E2DDEA39 AccurateRip v2 signature : 384BED61 ->Accurately ripped (v2, confidence 2/2) Statistics Read error : 0 Jitter error (maybe fixed) : 0 Retry sector count : 0 Damaged sector count : 0
Track 05 Filename : /Volumes/Andy HD2/XLD/Mahler - Symphony No.1 (Vladimir Jurowski)/01.05 Vladimir Jurowski. London Philharmonic Orchestra - Symphony No. 1 In D Major, "Titan" - V. Sturmisch Bewegt.flac
CRC32 hash : CE2E8509 CRC32 hash (skip zero) : 6FED8477 AccurateRip v1 signature : D0B9F57D AccurateRip v2 signature : D6324506 ->Accurately ripped (v2, confidence 2/2) Statistics Read error : 0 Jitter error (maybe fixed) : 0 Retry sector count : 0 Damaged sector count : 0
No errors occurred
End of status report

Содержание индексной карты (.CUE)

TITLE "Mahler: Symphony No. 1"PERFORMER "Vladimir Jurowski: London Philharmonic Orchestra"CATALOG 0854990001703REM GENRE "Classical"REM DATE "2013"REM DISCNUMBER 1REM TOTALDISCS 1REM DISCID 4F0E4405FILE "01.01 Vladimir Jurowski. London Philharmonic Orchestra - Symphony No. 1 In D Major, "Titan" - I. Langsam, Schleppend.flac" WAVE TRACK 01 AUDIO TITLE "Symphony No. 1 In D Major, "Titan" - I. Langsam, Schleppend" PERFORMER "Vladimir Jurowski: London Philharmonic Orchestra" SONGWRITER "Gustav Mahler" ISRC GBHZU1300701 INDEX 01 00:00:00FILE "01.02 Vladimir Jurowski. London Philharmonic Orchestra - Symphony No. 1 In D Major, "Titan" - II. Blumine.flac" WAVE TRACK 02 AUDIO TITLE "Symphony No. 1 In D Major, "Titan" - II. Blumine" PERFORMER "Vladimir Jurowski: London Philharmonic Orchestra" SONGWRITER "Gustav Mahler" ISRC GBHZU1300702 INDEX 01 00:00:00FILE "01.03 Vladimir Jurowski. London Philharmonic Orchestra - Symphony No. 1 In D Major, "Titan" - III. Kraftig Bewegt, Doch Nicht Zu Schnell.flac" WAVE TRACK 03 AUDIO TITLE "Symphony No. 1 In D Major, "Titan" - III. Kraftig Bewegt, Doch Nicht Zu Schnell" PERFORMER "Vladimir Jurowski: London Philharmonic Orchestra" SONGWRITER "Gustav Mahler" ISRC GBHZU1300703 INDEX 01 00:00:00FILE "01.04 Vladimir Jurowski. London Philharmonic Orchestra - Symphony No. 1 In D Major, "Titan" - IV. Feierlich Und Gemessen, Ohne Zu Schleppen.flac" WAVE TRACK 04 AUDIO TITLE "Symphony No. 1 In D Major, "Titan" - IV. Feierlich Und Gemessen, Ohne Zu Schleppen" PERFORMER "Vladimir Jurowski: London Philharmonic Orchestra" SONGWRITER "Gustav Mahler" ISRC GBHZU1300704 INDEX 01 00:00:00FILE "01.05 Vladimir Jurowski. London Philharmonic Orchestra - Symphony No. 1 In D Major, "Titan" - V. Sturmisch Bewegt.flac" WAVE TRACK 05 AUDIO TITLE "Symphony No. 1 In D Major, "Titan" - V. Sturmisch Bewegt" PERFORMER "Vladimir Jurowski: London Philharmonic Orchestra" SONGWRITER "Gustav Mahler" ISRC GBHZU1300705 INDEX 01 00:00:00



Показать сообщения:    

Текущее время: 09-Дек 16:29

Часовой пояс: UTC + 3


Вы не можете начинать темы
Вы не можете отвечать на сообщения
Вы не можете редактировать свои сообщения
Вы не можете удалять свои сообщения
Вы не можете голосовать в опросах
Вы не можете прикреплять файлы к сообщениям
Вы не можете скачивать файлы