(Classical) Aram Khachaturian / Хачатурян - Ode to Joy / Ода радости, 3 Concert Arias/ Концерные арии, Ballad / Балада, Poem, March of Zangezur / Марш Зангезура (Loris Tjeknavorian, Armenian Philharmonic Orchestra) - 2000, FLAC (image+.cue) lossless


 

[Цитировать]

Aram Ilyich Khachaturian - Ode to Joy, 3 Concert Arias, Ballad. Poem, March of Zangezur (Loris Tjeknavorian, Armenian Philharmonic Orchestra)
Жанр: Classical
Год издания диска: 2000
Издатель (лейбл): ASV
Номер по каталогу: CDDCA1087
Дата записи:
Аудиокодек: FLAC
Тип рипа: image+.cue
Битрейт аудио: lossless
Продолжительность: 61:55
Источник: скачано из сети
Наличие сканов в содержимом раздачи: да
Треклист:
01. Ode to Joy - The Spring Sun Rises (1956) [0:10:37.24]
Three Concert Arias
02. No.1 Poem: If I Were a Scarlet Coral [0:07:19.63]
03. No.2 Legend: Every night Someone Comes to the waters [0:08:05.06]
04. No.3 Dithyramb: You are Carried to the place [0:04:37.09]
05. Ballad of the Motherland - Maybe Somewhere The Sky Is Blue (1961) [0:07:45.00]
06. Poem (rev. 1961) [0:19:21.19]
07. March of Zangezur (1938) [0:04:09.16]
Исполнители:
Armenian Philharmonic Orchestra
Loris Tjeknavorian

LOG EAC

Exact Audio Copy V1.0 beta 3 from 29. August 2011
EAC extraction logfile from 7. September 2014, 0:05
Aram Ilyich Khachaturian / Ode to Joy, 3 Concert Arias, Ballad. Poem, March of Zangezur
Used drive : TSSTcorpCDDVDW SH-S223C Adapter: 0 ID: 1
Read mode : SecureUtilize accurate stream : YesDefeat audio cache : YesMake use of C2 pointers : No
Read offset correction : 697Overread into Lead-In and Lead-Out : NoFill up missing offset samples with silence : YesDelete leading and trailing silent blocks : NoNull samples used in CRC calculations : YesUsed interface : Native Win32 interface for Win NT & 2000
Used output format : User Defined EncoderSelected bitrate : 1024 kBit/sQuality : HighAdd ID3 tag : NoCommand line compressor : C:\Program Files (x86)\Exact Audio Copy\FLAC\FLAC.EXEAdditional command line options : -V -0 -T "COMMENT=Ripped by Tapaz9/Johnston" -T "artist=%artist%" -T "title=%title%" -T "album=%albumtitle%" -T "date=%year%" -T "tracknumber=%tracknr%" -T "genre=%genre%" %source%
TOC of the extracted CD
Track | Start | Length | Start sector | End sector---------------------------------------------------------1 | 0:00.00 | 10:37.24 | 0 | 477982 | 10:37.24 | 7:19.63 | 47799 | 807863 | 17:57.12 | 8:05.06 | 80787 | 1171674 | 26:02.18 | 4:37.09 | 117168 | 1379515 | 30:39.27 | 7:45.00 | 137952 | 1728266 | 38:24.27 | 19:21.19 | 172827 | 2599207 | 57:45.46 | 4:09.16 | 259921 | 278611
Range status and errors
Selected range
Filename F:\Musique\Khachaturian, Aram\Khachaturian_3ConcertArias_OdeToJoy_Poem\Aram Ilyich Khachaturian - Ode to Joy, 3 Concert Arias, Ballad. Poem, March of Zangezur.wav
Peak level 93.3 %Extraction speed 14.7 XRange quality 100.0 %Copy CRC 5BD94463Copy OK
No errors occurred
End of status report
==== Log checksum AC0278973726F4BA3B6797B907029E35133CAB44393E6C95D5C7B7934C05BA47 ====
mp3



Показать сообщения:    

Текущее время: 03-Дек 12:38

Часовой пояс: UTC + 3


Вы не можете начинать темы
Вы не можете отвечать на сообщения
Вы не можете редактировать свои сообщения
Вы не можете удалять свои сообщения
Вы не можете голосовать в опросах
Вы не можете прикреплять файлы к сообщениям
Вы не можете скачивать файлы