(Classical) Николай Римский-Корсаков - Симфонии № 1 и 3; Фантазия на сербские темы - Malaysian Philharmonic Orchestra, Kees Bakels - 2005, FLAC (image+.cue) lossless


 

[Цитировать]

Николай Римский-Корсаков - Симфонии №№ 1 и 3; Фантазия на сербские темы - Malaysian Philharmonic Orchestra, Kees Bakels
Жанр: Classical
Страна-производитель диска: Sweden
Год издания диска: 2005
Издатель (лейбл): BIS
Номер по каталогу: BIS-CD-1477
Дата записи: 2002
Аудиокодек: FLAC
Тип рипа: image+.cue
Битрейт аудио: lossless
Продолжительность: 66:48
Источник: собственный рип
Наличие сканов в содержимом раздачи: да
Треклист:
Николай Римский-Корсаков (1844-1908)
[1]-[4] Симфония №1 ми минор, Op.1 (вторая версия, 1884)
[5] Фантазия на сербские темы, Op.6
[6]-[9] Симфония №3 до мажор, Op.32 (вторая версия, 1886)
Исполнители:
Malaysian Philharmonic Orchestra
Kees Bakels
conductor

Лог создания рипа

Exact Audio Copy V1.0 beta 3 from 29. August 2011
EAC extraction logfile from 5. November 2014, 21:59
Malaysian Philharmonic Orchestra, Kees Bakels / Rimsky-Korsakov - Symphonies 1 & 3
Used drive : HL-DT-STDVDRAM GU70N Adapter: 0 ID: 0
Read mode : SecureUtilize accurate stream : YesDefeat audio cache : YesMake use of C2 pointers : No
Read offset correction : 48Overread into Lead-In and Lead-Out : NoFill up missing offset samples with silence : YesDelete leading and trailing silent blocks : NoNull samples used in CRC calculations : YesUsed interface : Native Win32 interface for Win NT & 2000
Used output format : User Defined EncoderSelected bitrate : 128 kBit/sQuality : HighAdd ID3 tag : NoCommand line compressor : C:\Program Files (x86)\Exact Audio Copy\Flac\flac.exeAdditional command line options : -V -8 -T "Date=%year%" -T "Genre=%genre%" %source%
TOC of the extracted CD
Track | Start | Length | Start sector | End sector --------------------------------------------------------- 1 | 0:00.00 | 7:11.44 | 0 | 32368 2 | 7:11.44 | 7:27.57 | 32369 | 65950 3 | 14:39.26 | 4:46.09 | 65951 | 87409 4 | 19:25.35 | 6:04.15 | 87410 | 114724 5 | 25:29.50 | 6:55.58 | 114725 | 145907 6 | 32:25.33 | 13:19.08 | 145908 | 205840 7 | 45:44.41 | 5:51.02 | 205841 | 232167 8 | 51:35.43 | 9:09.66 | 232168 | 273408 9 | 60:45.34 | 6:01.33 | 273409 | 300516
Range status and errors
Selected range
Filename C:\temp\BIS-CD-1477 - Rimsky-Korsakov - Symphonies Nos. 1 & 3\Rimsky-Korsakov - Symphonies 1 & 3.wav
Peak level 99.8 % Extraction speed 2.1 X Range quality 99.9 % Test CRC C6497978 Copy CRC C6497978 Copy OK
No errors occurred
AccurateRip summary
Track 1 accurately ripped (confidence 7) [E35F8186] (AR v2)Track 2 accurately ripped (confidence 7) [1EC0ACFA] (AR v2)Track 3 accurately ripped (confidence 7) [257BAAB8] (AR v2)Track 4 accurately ripped (confidence 7) [392A500F] (AR v2)Track 5 accurately ripped (confidence 7) [08EACE94] (AR v2)Track 6 accurately ripped (confidence 7) [5751C145] (AR v2)Track 7 accurately ripped (confidence 7) [2CE05A91] (AR v2)Track 8 accurately ripped (confidence 7) [3B2AC0DC] (AR v2)Track 9 accurately ripped (confidence 7) [4E9760CF] (AR v2)
All tracks accurately ripped
End of status report
==== Log checksum 1B5257CD53744A59286C28415EEA67E56AC05F75A52ACAFAFD466D7916802CBE ====



Показать сообщения:    

Текущее время: 03-Дек 18:39

Часовой пояс: UTC + 3


Вы не можете начинать темы
Вы не можете отвечать на сообщения
Вы не можете редактировать свои сообщения
Вы не можете удалять свои сообщения
Вы не можете голосовать в опросах
Вы не можете прикреплять файлы к сообщениям
Вы не можете скачивать файлы