(Classical, contemporary) Salvatore Sciarrino - Orchestral Works: Variazioni; Allegoria della notte; Frammento e Adagio; Morte di Borromini; etc. - Orchestra Sinfonica Nazionale della RAI, Tito Ceccherini - 2008, FLAC (image+.cue) lossless


 

[Цитировать]

Salvatore Sciarrino - Orchestral Works: Variazioni; Allegoria della notte; Frammento e Adagio; Morte di Borromini; etc. - Orchestra Sinfonica Nazionale della RAI, Tito Ceccherini
Жанр: Classical, contemporary
Страна-производитель диска: Germany
Год издания диска: 2008
Издатель (лейбл): Kairos
Номер по каталогу: 0012802KAI
Дата записи: 2006
Аудиокодек: FLAC
Тип рипа: image+.cue
Битрейт аудио: lossless
Продолжительность: 2:48:18
Источник: собственный рип
Наличие сканов в содержимом раздачи: да
Треклист:
Salvatore Sciarrino (1947)
CD1
[1] Variazioni for cello & orchestra (1974)
Francesco Dillon cello
[2] Allegoria della notte for violin & orchestra (1985)
Marco Rogliano violin
[3]-[4] Frammento e Adagio for flute & orchestra
Mario Caroli flute
CD2
[1] Morte di Borromini for speaker and orchestra
Moni Ovadia speaker
[2] I fuochi oltre la ragione for orchestra
CD3
[1] Recitativo oscuro for piano & orchestra
Daniele Pollini piano
[2] Il suono e il tacere
[3] Shadow of sound
Исполнители:
Orchestra Sinfonica Nazionale della RAI
Tito Ceccherini
conductor

Лог создания рипа: CD1

Exact Audio Copy V1.0 beta 3 from 29. August 2011
EAC extraction logfile from 25. October 2014, 17:36
Orchestra Sinfonica Nazionale della RAI, Tito Ceccherini / Sciarrino - Orchestral Works - CD1
Used drive : HL-DT-STDVDRAM GU70N Adapter: 0 ID: 0
Read mode : SecureUtilize accurate stream : YesDefeat audio cache : YesMake use of C2 pointers : No
Read offset correction : 48Overread into Lead-In and Lead-Out : NoFill up missing offset samples with silence : YesDelete leading and trailing silent blocks : NoNull samples used in CRC calculations : YesUsed interface : Native Win32 interface for Win NT & 2000
Used output format : User Defined EncoderSelected bitrate : 128 kBit/sQuality : HighAdd ID3 tag : NoCommand line compressor : C:\Program Files (x86)\Exact Audio Copy\Flac\flac.exeAdditional command line options : -V -8 -T "Date=%year%" -T "Genre=%genre%" %source%
TOC of the extracted CD
Track | Start | Length | Start sector | End sector --------------------------------------------------------- 1 | 0:00.01 | 22:51.12 | 1 | 102837 2 | 22:51.13 | 17:07.48 | 102838 | 179910 3 | 39:58.61 | 10:06.30 | 179911 | 225390 4 | 50:05.16 | 7:06.47 | 225391 | 257387
Range status and errors
Selected range
Filename C:\temp\Sciarrino - Orchestral Works\Sciarrino - Orchestral Works - CD1.wav
Peak level 92.1 % Extraction speed 2.0 X Range quality 100.0 % Test CRC 587439AC Copy CRC 587439AC Copy OK
No errors occurred
AccurateRip summary
Track 1 accurately ripped (confidence 2) [76E9B3D7] (AR v2)Track 2 accurately ripped (confidence 3) [AF9C5B0D] (AR v2)Track 3 accurately ripped (confidence 3) [F837A55D] (AR v2)Track 4 accurately ripped (confidence 3) [583A2C52] (AR v2)
All tracks accurately ripped
End of status report
==== Log checksum 268D211DA95527BB5E28E8D74A16703DF70570935068C0A34163DCF5D1682B69 ====

Лог создания рипа: CD2

Exact Audio Copy V1.0 beta 3 from 29. August 2011
EAC extraction logfile from 25. October 2014, 19:01
Orchestra Sinfonica Nazionale della RAI, Tito Ceccherini / Sciarrino - Orchestral Works - CD2
Used drive : HL-DT-STDVDRAM GU70N Adapter: 0 ID: 0
Read mode : SecureUtilize accurate stream : YesDefeat audio cache : YesMake use of C2 pointers : No
Read offset correction : 48Overread into Lead-In and Lead-Out : NoFill up missing offset samples with silence : YesDelete leading and trailing silent blocks : NoNull samples used in CRC calculations : YesUsed interface : Native Win32 interface for Win NT & 2000
Used output format : User Defined EncoderSelected bitrate : 128 kBit/sQuality : HighAdd ID3 tag : NoCommand line compressor : C:\Program Files (x86)\Exact Audio Copy\Flac\flac.exeAdditional command line options : -V -8 -T "Date=%year%" -T "Genre=%genre%" %source%
TOC of the extracted CD
Track | Start | Length | Start sector | End sector --------------------------------------------------------- 1 | 0:00.01 | 27:08.71 | 1 | 122171 2 | 27:08.72 | 31:41.35 | 122172 | 264781
Range status and errors
Selected range
Filename C:\temp\Sciarrino - Orchestral Works\Sciarrino - Orchestral Works - CD2.wav
Peak level 100.0 % Extraction speed 2.1 X Range quality 100.0 % Test CRC CCB8193D Copy CRC CCB8193D Copy OK
No errors occurred
AccurateRip summary
Track 1 accurately ripped (confidence 2) [8AA9E5FD] (AR v2)Track 2 accurately ripped (confidence 3) [4D7421AB] (AR v2)
All tracks accurately ripped
End of status report
==== Log checksum A772B4519A53D45E23C9554423925F8E43DFCEEA3F9FD3A762C7697173ED5D5E ====

Лог создания рипа: CD3

Exact Audio Copy V1.0 beta 3 from 29. August 2011
EAC extraction logfile from 25. October 2014, 23:01
Orchestra Sinfonica Nazionale della RAI, Tito Ceccherini / Sciarrino - Orchestral Works - CD3
Used drive : HL-DT-STDVDRAM GU70N Adapter: 0 ID: 0
Read mode : SecureUtilize accurate stream : YesDefeat audio cache : YesMake use of C2 pointers : No
Read offset correction : 48Overread into Lead-In and Lead-Out : NoFill up missing offset samples with silence : YesDelete leading and trailing silent blocks : NoNull samples used in CRC calculations : YesUsed interface : Native Win32 interface for Win NT & 2000
Used output format : User Defined EncoderSelected bitrate : 128 kBit/sQuality : HighAdd ID3 tag : NoCommand line compressor : C:\Program Files (x86)\Exact Audio Copy\Flac\flac.exeAdditional command line options : -V -8 -T "Date=%year%" -T "Genre=%genre%" %source%
TOC of the extracted CD
Track | Start | Length | Start sector | End sector --------------------------------------------------------- 1 | 0:00.01 | 16:43.56 | 1 | 75281 2 | 16:43.57 | 17:35.08 | 75282 | 154414 3 | 34:18.65 | 17:57.21 | 154415 | 235210
Range status and errors
Selected range
Filename C:\temp\Sciarrino - Orchestral Works\Sciarrino - Orchestral Works - CD3.wav
Peak level 89.8 % Extraction speed 2.0 X Range quality 100.0 % Test CRC ACBE1123 Copy CRC ACBE1123 Copy OK
No errors occurred
AccurateRip summary
Track 1 accurately ripped (confidence 2) [CA2A5ABD] (AR v2)Track 2 accurately ripped (confidence 3) [15FEE2BF] (AR v2)Track 3 accurately ripped (confidence 3) [779BADAD] (AR v2)
All tracks accurately ripped
End of status report
==== Log checksum C95A7EFF79312CA8C2A34910EC7CF4A4A741A16A500F1F18EFD4D17936B8AE5D ====



Показать сообщения:    

Текущее время: 11-Дек 03:22

Часовой пояс: UTC + 3


Вы не можете начинать темы
Вы не можете отвечать на сообщения
Вы не можете редактировать свои сообщения
Вы не можете удалять свои сообщения
Вы не можете голосовать в опросах
Вы не можете прикреплять файлы к сообщениям
Вы не можете скачивать файлы