(Classical, contemporary) Mihkel Kerem - Symphony No.3 \'For the Victims of Communism\'; Lamento; String Sextet - Estonian National Symphony Orchestra, Tallinn Chamber Orchestra, Tallinn Ensemble, Mikk Murdvee - 2013, FLAC (image+.cue) lossless


 

[Цитировать]

Mihkel Kerem - Symphony No.3 'For the Victims of Communism'; Lamento; String Sextet - Estonian National Symphony Orchestra, Tallinn Chamber Orchestra, Tallinn Ensemble, Mikk Murdvee
Жанр: Classical, contemporary
Страна-производитель диска: UK
Год издания диска: 2013
Издатель (лейбл): Toccata Classics
Номер по каталогу: TOCC 0173
Дата записи: 2012
Аудиокодек: FLAC
Тип рипа: image+.cue
Битрейт аудио: lossless
Продолжительность: 65:16
Источник: собственный рип
Наличие сканов в содержимом раздачи: да
Треклист:
Mihkel Kerem (b. 1981)
[1]-[3] Symphony No. 3, For the Victims of Communism (2003)
[4] Lamento for solo viola and string orchestra (2008–9)
[5] Sextet for Strings (2004)
Исполнители:
Estonian National Symphony Orchestra [1]-[3]
Tallinn Chamber Orchestra [4]
Tallinn Ensemble [5]
Mikk Murdvee viola [4] & conductor [1]-[4]

Лог создания рипа

Exact Audio Copy V1.0 beta 3 from 29. August 2011
EAC extraction logfile from 4. October 2014, 18:51
Estonian National Symphony Orchestra, Mikk Murdvee / Kerem - Symphony No.3; Lamento; Sextet
Used drive : HL-DT-STDVDRAM GU70N Adapter: 0 ID: 0
Read mode : SecureUtilize accurate stream : YesDefeat audio cache : YesMake use of C2 pointers : No
Read offset correction : 48Overread into Lead-In and Lead-Out : NoFill up missing offset samples with silence : YesDelete leading and trailing silent blocks : NoNull samples used in CRC calculations : YesUsed interface : Native Win32 interface for Win NT & 2000
Used output format : User Defined EncoderSelected bitrate : 128 kBit/sQuality : HighAdd ID3 tag : NoCommand line compressor : C:\Program Files (x86)\Exact Audio Copy\Flac\flac.exeAdditional command line options : -V -8 -T "Date=%year%" -T "Genre=%genre%" %source%
TOC of the extracted CD
Track | Start | Length | Start sector | End sector --------------------------------------------------------- 1 | 0:00.00 | 13:14.56 | 0 | 59605 2 | 13:14.56 | 8:02.15 | 59606 | 95770 3 | 21:16.71 | 5:32.22 | 95771 | 120692 4 | 26:49.18 | 8:53.73 | 120693 | 160740 5 | 35:43.16 | 29:33.32 | 160741 | 293747
Range status and errors
Selected range
Filename C:\temp\Kerem - Symphony No.3; Lamento; Sextet\Kerem - Symphony No.3; Lamento; Sextet.wav
Peak level 86.1 % Extraction speed 2.2 X Range quality 99.9 % Test CRC 5F50201C Copy CRC 5F50201C Copy OK
No errors occurred
AccurateRip summary
Track 1 not present in databaseTrack 2 not present in databaseTrack 3 not present in databaseTrack 4 not present in databaseTrack 5 not present in database
None of the tracks are present in the AccurateRip database
End of status report
==== Log checksum 15E40D684CF09EFBE93B5BDE81839B392B4146A97DBDF0AA46DA180ADC7B3DFC ====



Показать сообщения:    

Текущее время: 10-Дек 09:55

Часовой пояс: UTC + 3


Вы не можете начинать темы
Вы не можете отвечать на сообщения
Вы не можете редактировать свои сообщения
Вы не можете удалять свои сообщения
Вы не можете голосовать в опросах
Вы не можете прикреплять файлы к сообщениям
Вы не можете скачивать файлы