(Classical) Muzio Clementi - Symphonies Nos. 1 & 2; Overture in D major - Orchestra Sinfonica di Roma, Francesco La Vecchia - 2013, FLAC (image+.cue) lossless


 

[Цитировать]

Muzio Clementi - Symphonies Nos. 1 & 2; Overture in D major - Orchestra Sinfonica di Roma, Francesco La Vecchia
Жанр: Classical
Год издания диска: 2013
Издатель (лейбл): Naxos
Номер по каталогу: 8.573071
Дата записи: 2011
Аудиокодек: FLAC
Тип рипа: image+.cue
Битрейт аудио: lossless
Продолжительность: 60:10
Источник: собственный рип
Наличие сканов в содержимом раздачи: да
Треклист:
Muzio Clementi (1752-1832)
[1] Overture in D major
[2]-[5] Symphony No. 1 in C major, WO 32
[6]-[9] Symphony No. 2 in D major, WO 33
Исполнители:
Orchestra Sinfonica di Roma
Francesco La Vecchia

Лог создания рипа

Exact Audio Copy V1.0 beta 3 from 29. August 2011
EAC extraction logfile from 12. October 2014, 21:46
Orchestra Sinfonica di Roma, Francesco La Vecchia / Clementi - Symphonies Nos. 1 & 2
Used drive : HL-DT-STDVDRAM GU70N Adapter: 0 ID: 0
Read mode : SecureUtilize accurate stream : YesDefeat audio cache : YesMake use of C2 pointers : No
Read offset correction : 48Overread into Lead-In and Lead-Out : NoFill up missing offset samples with silence : YesDelete leading and trailing silent blocks : NoNull samples used in CRC calculations : YesUsed interface : Native Win32 interface for Win NT & 2000
Used output format : User Defined EncoderSelected bitrate : 128 kBit/sQuality : HighAdd ID3 tag : NoCommand line compressor : C:\Program Files (x86)\Exact Audio Copy\Flac\flac.exeAdditional command line options : -V -8 -T "Date=%year%" -T "Genre=%genre%" %source%
TOC of the extracted CD
Track | Start | Length | Start sector | End sector --------------------------------------------------------- 1 | 0:00.00 | 8:50.23 | 0 | 39772 2 | 8:50.23 | 8:53.06 | 39773 | 79753 3 | 17:43.29 | 5:40.69 | 79754 | 105322 4 | 23:24.23 | 6:30.70 | 105323 | 134642 5 | 29:55.18 | 5:49.00 | 134643 | 160817 6 | 35:44.18 | 9:16.60 | 160818 | 202577 7 | 45:01.03 | 5:35.64 | 202578 | 227766 8 | 50:36.67 | 4:30.11 | 227767 | 248027 9 | 55:07.03 | 5:00.72 | 248028 | 270599
Range status and errors
Selected range
Filename C:\temp\Clementi - Symphonies Nos. 1 & 2\Clementi - Symphonies Nos. 1 & 2.wav
Peak level 99.6 % Extraction speed 5.1 X Range quality 100.0 % Test CRC 59711F8D Copy CRC 59711F8D Copy OK
No errors occurred
AccurateRip summary
Track 1 accurately ripped (confidence 9) [233ADED1] (AR v2)Track 2 accurately ripped (confidence 9) [27781B97] (AR v2)Track 3 accurately ripped (confidence 9) [8C54C2E1] (AR v2)Track 4 accurately ripped (confidence 9) [D590F92E] (AR v2)Track 5 accurately ripped (confidence 9) [F883438E] (AR v2)Track 6 accurately ripped (confidence 9) [044D3E5F] (AR v2)Track 7 accurately ripped (confidence 9) [288FDBD9] (AR v2)Track 8 accurately ripped (confidence 9) [04610B98] (AR v2)Track 9 accurately ripped (confidence 9) [6EE67F17] (AR v2)
All tracks accurately ripped
End of status report
==== Log checksum C1D6AF585BEA50BF49A34C6678385F8FCEC8E5E11E430BBC9B12A7B5A8BDEE32 ====



Показать сообщения:    

Текущее время: 03-Дек 05:28

Часовой пояс: UTC + 3


Вы не можете начинать темы
Вы не можете отвечать на сообщения
Вы не можете редактировать свои сообщения
Вы не можете удалять свои сообщения
Вы не можете голосовать в опросах
Вы не можете прикреплять файлы к сообщениям
Вы не можете скачивать файлы