(Chamber Music) Offenbach - Offenbach\'s World * Gaite Parisiennne * Cello Concerto * La Belle Helene etc. (Ofra Hanoy - Cincinnati Orchestra, Kunzel) - 2000, APE (image+.cue) lossless


 

[Цитировать]

Jacques Offenbach (1819-1880) - Offenbach's World
Жанр: Chamber Music
Страна-производитель диска: Germany
Год издания диска: 2000
Издатель (лейбл): Regis
Номер по каталогу: RRC 1032
Дата записи: 1986
Аудиокодек: APE
Тип рипа: image+.cue
Битрейт аудио: lossless
Продолжительность: 76'21
Источник: собственный рип
Наличие сканов в содержимом раздачи: да
Треклист:
1. Overture: La Vie Parisienne
2. Allegro brillante (Mesdames de la ballet)
3. Polka (Voyages dans la lune)
4. Galop (La Vie Parisienne)
5. Waltz (Orpheus in the Underworld)
6. March (Tromb-al-Cazar)
7. Waltz (La Perichole)
8. Intro to Can-Can/ Can-Can No.1 (Robinson Crusoe)
9. Can-Can No.3 (La Vie Parisienne)
10. Can-Can No.4 (Orpheus in the Underworld)
11. Barcarolle (Tales of Hoffmann)
12. Souvenir d'Aix-les-Bains Valse
13. Overture d'une Grande Orchestre
14. Overture: Orpheus in the Underworld
15. La Belle Helene
16. Concerto Rondo for Cello and Orchestra
Исполнители:
Ofra Harnoy (cello in concerto)
Cincinnati Orchestra, Erich Kunzel

Лог создания рипа

Exact Audio Copy V1.0 beta 3 from 29. August 2011
EAC extraction logfile from 29. July 2014, 23:03
Offenbach / Offenbach's World, Gaite Parisienne-Cello Concerto-La Belle Helene etc
Used drive : TS8XDVDSTRANSCEND Adapter: 1 ID: 0
Read mode : SecureUtilize accurate stream : YesDefeat audio cache : YesMake use of C2 pointers : No
Read offset correction : 6Overread into Lead-In and Lead-Out : NoFill up missing offset samples with silence : YesDelete leading and trailing silent blocks : NoNull samples used in CRC calculations : YesUsed interface : Native Win32 interface for Win NT & 2000
Used output format : Monkey's Audio Lossless EncoderSelected bitrate : High Lossless CompressionQuality : HighAdd ID3 tag : NoCommand line compressor : C:\Program Files (x86)\Exact Audio Copy\MAC\MAC.exe
TOC of the extracted CD
Track | Start | Length | Start sector | End sector --------------------------------------------------------- 1 | 0:00.00 | 2:20.45 | 0 | 10544 2 | 2:20.45 | 1:09.20 | 10545 | 15739 3 | 3:29.65 | 1:35.47 | 15740 | 22911 4 | 5:05.37 | 1:16.65 | 22912 | 28676 5 | 6:22.27 | 2:26.15 | 28677 | 39641 6 | 8:48.42 | 1:36.43 | 39642 | 46884 7 | 10:25.10 | 3:09.42 | 46885 | 61101 8 | 13:34.52 | 2:42.55 | 61102 | 73306 9 | 16:17.32 | 1:32.22 | 73307 | 80228 10 | 17:49.54 | 1:26.38 | 80229 | 86716 11 | 19:16.17 | 3:58.18 | 86717 | 104584 12 | 23:14.35 | 4:35.65 | 104585 | 125274 13 | 27:50.25 | 8:37.40 | 125275 | 164089 14 | 36:27.65 | 10:00.40 | 164090 | 209129 15 | 46:28.30 | 9:23.55 | 209130 | 251409 16 | 55:52.10 | 21:17.70 | 251410 | 347254
Range status and errors
Selected range
Filename D:\EAC\Offenbach - Offenbach's World, Gaite Parisienne-Cello Concerto-La Belle Helene etc.wav
Peak level 99.8 % Extraction speed 3.4 X Range quality 99.9 % Test CRC 8CB7DEE6 Copy CRC 8CB7DEE6 Copy OK
No errors occurred
AccurateRip summary
Track 1 accurately ripped (confidence 1) [BCF02D7A] (AR v2)Track 2 accurately ripped (confidence 1) [D0BEE955] (AR v2)Track 3 accurately ripped (confidence 1) [491C1A48] (AR v2)Track 4 accurately ripped (confidence 1) [0DB95D3D] (AR v2)Track 5 accurately ripped (confidence 1) [72F57EDE] (AR v2)Track 6 accurately ripped (confidence 1) [C784FF73] (AR v2)Track 7 accurately ripped (confidence 1) [ACDBF90A] (AR v2)Track 8 accurately ripped (confidence 1) [6A96F547] (AR v2)Track 9 accurately ripped (confidence 1) [1A948EE0] (AR v2)Track 10 accurately ripped (confidence 1) [5477E3AC] (AR v2)Track 11 accurately ripped (confidence 1) [789F5BCA] (AR v2)Track 12 accurately ripped (confidence 1) [C038108B] (AR v2)Track 13 accurately ripped (confidence 1) [1656B84C] (AR v2)Track 14 accurately ripped (confidence 1) [20DC4FB6] (AR v2)Track 15 accurately ripped (confidence 1) [67223840] (AR v2)Track 16 accurately ripped (confidence 1) [49273B84] (AR v2)
All tracks accurately ripped
End of status report
---- CUETools DB Plugin V2.1.3
[CTDB TOCID: yQ73zd4fMC3iQQ8DwQipOe7tyu4-] disk not present in database, Submit result: unrecognized or virtual drive
==== Log checksum 25FD9E55E3EDA2AC6BF29356922AECD5273FDE55E50F3D14411E778648104E97 ====

Содержание индексной карты (.CUE)

REM GENRE OrchestralREM DATE 1986REM DISCID D5121610REM COMMENT "ExactAudioCopy v1.0b3"PERFORMER "Offenbach"TITLE "Offenbach's World, Gaite Parisienne-Cello Concerto-La Belle Helene etc"FILE "Offenbach - Offenbach's World, Gaite Parisienne-Cello Concerto-La Belle Helene etc.ape" WAVE TRACK 01 AUDIO TITLE "Overture: La Vie Parisienne" PERFORMER "Offenbach" INDEX 01 00:00:00 TRACK 02 AUDIO TITLE "Allegro brillante (Mesdames de la ballet)" PERFORMER "Offenbach" INDEX 01 02:20:45 TRACK 03 AUDIO TITLE "Polka (Voyages dans la lune)" PERFORMER "Offenbach" INDEX 01 03:29:65 TRACK 04 AUDIO TITLE "Galop (La Vie Parisienne)" PERFORMER "Offenbach" INDEX 01 05:05:37 TRACK 05 AUDIO TITLE "Waltz (Orpheus in the Underworld)" PERFORMER "Offenbach" INDEX 00 06:20:07 INDEX 01 06:22:27 TRACK 06 AUDIO TITLE "March (Tromb-al-Cazar)" PERFORMER "Offenbach" INDEX 00 08:47:32 INDEX 01 08:48:42 TRACK 07 AUDIO TITLE "Waltz (La Perichole)" PERFORMER "Offenbach" INDEX 00 10:23:05 INDEX 01 10:25:10 TRACK 08 AUDIO TITLE "Intro to Can-Can/ Can-Can No.1 (Robinson Crusoe)" PERFORMER "Offenbach" INDEX 01 13:34:52 TRACK 09 AUDIO TITLE "Can-Can No.3 (La Vie Parisienne)" PERFORMER "Offenbach" INDEX 01 16:17:32 TRACK 10 AUDIO TITLE "Can-Can No.4 (Orpheus in the Underworld)" PERFORMER "Offenbach" INDEX 00 17:48:35 INDEX 01 17:49:54 TRACK 11 AUDIO TITLE "Barcarolle (Tales of Hoffmann)" PERFORMER "Offenbach" INDEX 00 19:13:45 INDEX 01 19:16:17 TRACK 12 AUDIO TITLE "Souvenir d'Aix-les-Bains Valse" PERFORMER "Offenbach" INDEX 00 23:12:22 INDEX 01 23:14:35 TRACK 13 AUDIO TITLE "Overture d'une Grande Orchestre" PERFORMER "Offenbach" INDEX 00 27:48:05 INDEX 01 27:50:25 TRACK 14 AUDIO TITLE "Overture: Orpheus in the Underworld" PERFORMER "Offenbach" INDEX 00 36:25:17 INDEX 01 36:27:65 TRACK 15 AUDIO TITLE "La Belle Helene" PERFORMER "Offenbach" INDEX 00 46:25:45 INDEX 01 46:28:30 TRACK 16 AUDIO TITLE "Concerto Rondo for Cello and Oechestra" PERFORMER "Offenbach" INDEX 00 55:49:15 INDEX 01 55:52:10



Показать сообщения:    

Текущее время: 06-Дек 20:58

Часовой пояс: UTC + 3


Вы не можете начинать темы
Вы не можете отвечать на сообщения
Вы не можете редактировать свои сообщения
Вы не можете удалять свои сообщения
Вы не можете голосовать в опросах
Вы не можете прикреплять файлы к сообщениям
Вы не можете скачивать файлы