(Orchestral) Сергей Прокофьев - Симфония №5 • »Поручик Киже« сюита (NHK Symphony Orchestra - Кирилл Кондрашин) - 2002, FLAC (image+.cue) lossless


 

[Цитировать]

Prokofiev - Symphony No.5 • »Kije«
NHK Symphony Orchestra - Kirill Kondrashin-
-
-
-
- Жанр: Orchestral
Страна-производитель диска: Japan
Год издания диска: 2002
Издатель (лейбл): King
Дата записи: 01.1980
Аудиокодек: FLAC
Тип рипа: image+.cue
Битрейт аудио: lossless
Продолжительность: 60'17''
Источник: собственный рип
Наличие сканов в содержимом раздачи: да
Треклист:
»Поручик Киже« сюита:
[1] I. Рождение Киже
[2] II. Романс
[3] III. Свадьба Киже
[4] IV. Тройка
[5] V. Похороны Киже
Симфония №5:
[6] I. Andante
[7] II. Allegro marcato
[8] III. Adagio
[9] IV. Allegro giocoso
Исполнители:
NHK Symphony Orchestra - Кирилл Кондрашин-

Лог создания рипа

Exact Audio Copy V1.0 beta 3 from 29. August 2011
EAC extraction logfile from 28. September 2014, 18:08
NHK Symphony Orchestra - Kirill Kondrashin / Prokofiev - Symphony No.5, Lieutensnt Kije suite
Used drive : TSSTcorpCDDVDW SN-208BB Adapter: 0 ID: 1
Read mode : SecureUtilize accurate stream : YesDefeat audio cache : YesMake use of C2 pointers : No
Read offset correction : 6Overread into Lead-In and Lead-Out : NoFill up missing offset samples with silence : YesDelete leading and trailing silent blocks : NoNull samples used in CRC calculations : YesUsed interface : Native Win32 interface for Win NT & 2000
Used output format : User Defined EncoderSelected bitrate : 896 kBit/sQuality : HighAdd ID3 tag : NoCommand line compressor : C:\Program Files (x86)\FLAC\flac.exeAdditional command line options : -T "COMMENT=rip by el coronel" -8 -V %source%
TOC of the extracted CD
Track | Start | Length | Start sector | End sector --------------------------------------------------------- 1 | 0:00.00 | 4:13.37 | 0 | 19011 2 | 4:13.37 | 4:07.45 | 19012 | 37581 3 | 8:21.07 | 2:37.28 | 37582 | 49384 4 | 10:58.35 | 2:37.42 | 49385 | 61201 5 | 13:36.02 | 6:05.43 | 61202 | 88619 6 | 19:41.45 | 11:53.42 | 88620 | 142136 7 | 31:35.12 | 8:40.03 | 142137 | 181139 8 | 40:15.15 | 10:21.60 | 181140 | 227774 9 | 50:37.00 | 9:39.72 | 227775 | 271271
Range status and errors
Selected range
Filename K:\Music\Prokofiev 5 Kondrashin (NHK)\Prokofiev - Symphony No.5, Lieutensnt Kije suite - Kondrashin.wav
Peak level 99.9 % Extraction speed 3.3 X Range quality 100.0 % Test CRC 9076B8BC Copy CRC 9076B8BC Copy OK
No errors occurred
AccurateRip summary
Track 1 cannot be verified as accurate (confidence 1) [B68F976E], AccurateRip returned [13CD240F] (AR v2)Track 2 cannot be verified as accurate (confidence 1) [5E529E4A], AccurateRip returned [471F8401] (AR v2)Track 3 cannot be verified as accurate (confidence 1) [0F84FBC3], AccurateRip returned [521C3CEB] (AR v2)Track 4 cannot be verified as accurate (confidence 1) [33072BB0], AccurateRip returned [62C7C9CD] (AR v2)Track 5 cannot be verified as accurate (confidence 1) [01D99DE3], AccurateRip returned [7891E76B] (AR v2)Track 6 cannot be verified as accurate (confidence 1) [89CC4982], AccurateRip returned [AB8BF26F] (AR v2)Track 7 cannot be verified as accurate (confidence 1) [D308F0A3], AccurateRip returned [57DD9242] (AR v2)Track 8 cannot be verified as accurate (confidence 1) [4C159B1D], AccurateRip returned [EB6DE2DD] (AR v2)Track 9 cannot be verified as accurate (confidence 1) [46801097], AccurateRip returned [EBC13410] (AR v2)
No tracks could be verified as accurateYou may have a different pressing from the one(s) in the database
End of status report
==== Log checksum FE10A079ED2144F9E5A5F40E06AC702849E411CD4912D3A0A6A8015878101CE1 ====

Содержание индексной карты (.CUE)

REM GENRE ClassicalREM DATE 2001REM DISCID 760E2009REM COMMENT "ExactAudioCopy v1.0b3"PERFORMER "NHK Symphony Orchestra - Kirill Kondrashin"TITLE "Prokofiev - Symphony No.5, Lieutensnt Kije suite"FILE "Prokofiev - Symphony No.5, Lieutensnt Kije suite - Kondrashin.flac" WAVE TRACK 01 AUDIO TITLE "'Lieutensnt Kije': I. The Birth of Kije" PERFORMER "NHK Symphony Orchestra - Kirill Kondrashin" INDEX 01 00:00:00 TRACK 02 AUDIO TITLE "II. Romance" PERFORMER "NHK Symphony Orchestra - Kirill Kondrashin" INDEX 01 04:13:37 TRACK 03 AUDIO TITLE "III. Kije's Wedding" PERFORMER "NHK Symphony Orchestra - Kirill Kondrashin" INDEX 01 08:21:07 TRACK 04 AUDIO TITLE "IV. Troika" PERFORMER "NHK Symphony Orchestra - Kirill Kondrashin" INDEX 01 10:58:35 TRACK 05 AUDIO TITLE "V. The Burial of Kije" PERFORMER "NHK Symphony Orchestra - Kirill Kondrashin" INDEX 01 13:36:02 TRACK 06 AUDIO TITLE "Symphony No.5: I. Andante" PERFORMER "NHK Symphony Orchestra - Kirill Kondrashin" INDEX 00 19:36:45 INDEX 01 19:41:45 TRACK 07 AUDIO TITLE "II. Allegro marcato" PERFORMER "NHK Symphony Orchestra - Kirill Kondrashin" INDEX 01 31:35:12 TRACK 08 AUDIO TITLE "III. Adagio" PERFORMER "NHK Symphony Orchestra - Kirill Kondrashin" INDEX 01 40:15:15 TRACK 09 AUDIO TITLE "IV. Allegro giocoso" PERFORMER "NHK Symphony Orchestra - Kirill Kondrashin" INDEX 01 50:37:00
-



Показать сообщения:    

Текущее время: 10-Дек 15:49

Часовой пояс: UTC + 3


Вы не можете начинать темы
Вы не можете отвечать на сообщения
Вы не можете редактировать свои сообщения
Вы не можете удалять свои сообщения
Вы не можете голосовать в опросах
Вы не можете прикреплять файлы к сообщениям
Вы не можете скачивать файлы