(Orchestral) Чайковский - Симфония №5 (Czech Philharmonic Orchestra - Lovro von Matacic) - 1986, FLAC (image+.cue) lossless


 

[Цитировать]

TCHAIKOVSKY
SYMPHONY No.5

Lovro von Matačić
Czech Philharmonic Orchestra
- Жанр: Orchestral
Страна-производитель диска: Japan
Год издания диска: 1986
Издатель (лейбл): Denon for Supraphon
Дата записи: 1961
Аудиокодек: FLAC
Тип рипа: image+.cue
Битрейт аудио: lossless
Продолжительность: 42'30''
Источник: собственный рип
Наличие сканов в содержимом раздачи: да
Треклист:
П.И.Чайковский - Симфония №5:
[1] I. Andante - Allegro con anima
[2] II. Andante cantabile
[3] III. Allegro moderato
[4] IV. Finale (Andante maestoso - Allegro vivace)
Исполнители:
Czech Philharmonic Orchestra - Lovro von Matačić-

Лог создания рипа

Exact Audio Copy V1.0 beta 3 from 29. August 2011
EAC extraction logfile from 15. October 2014, 21:11
Czech Philharmonic Orchestra - Lovro von Matačić / Tchaikovsky - Symphony No.5
Used drive : TSSTcorpCDDVDW SN-208BB Adapter: 0 ID: 1
Read mode : SecureUtilize accurate stream : YesDefeat audio cache : YesMake use of C2 pointers : No
Read offset correction : 6Overread into Lead-In and Lead-Out : NoFill up missing offset samples with silence : YesDelete leading and trailing silent blocks : NoNull samples used in CRC calculations : YesUsed interface : Native Win32 interface for Win NT & 2000
Used output format : User Defined EncoderSelected bitrate : 896 kBit/sQuality : HighAdd ID3 tag : NoCommand line compressor : C:\Program Files (x86)\FLAC\flac.exeAdditional command line options : -T "COMMENT=rip by el coronel" -8 -V %source%
TOC of the extracted CD
Track | Start | Length | Start sector | End sector --------------------------------------------------------- 1 | 0:00.00 | 13:10.55 | 0 | 59304 2 | 13:10.55 | 12:02.70 | 59305 | 113524 3 | 25:13.50 | 5:37.42 | 113525 | 138841 4 | 30:51.17 | 11:45.00 | 138842 | 191716
Range status and errors
Selected range
Filename K:\Music\Tchaikovsky 5 Matacic (CzPO)\Tchaikovsky - Symphony No.5.wav
Peak level 84.5 % Extraction speed 3.0 X Range quality 100.0 % Test CRC 40950FAE Copy CRC 40950FAE Copy OK
No errors occurred
AccurateRip summary
Track 1 accurately ripped (confidence 2) [5F09F855] (AR v1)Track 2 accurately ripped (confidence 3) [607EDCC8] (AR v1)Track 3 accurately ripped (confidence 3) [A2F2D376] (AR v1)Track 4 accurately ripped (confidence 3) [E99B12AB] (AR v1)
All tracks accurately ripped
End of status report
==== Log checksum 7024F878D0D8449F02374836D423BE865F0848532DDDB90EDFD567D9D50CEB8C ====

Содержание индексной карты (.CUE)

REM GENRE ClassicalREM DATE 1986REM DISCID 3109FC04REM COMMENT ExactAudioCopy v1.0b3PERFORMER "Czech Philharmonic Orchestra - Lovro von Matacic"TITLE "Tchaikovsky - Symphony No.5"FILE "Tchaikovsky - Symphony No.5.flac" WAVE TRACK 01 AUDIO TITLE "I. Andante - Allegro con anima" INDEX 01 00:00:00 TRACK 02 AUDIO TITLE "II. Andante cantabile" INDEX 00 13:09:10 INDEX 01 13:10:55 TRACK 03 AUDIO TITLE "III. Allegro moderato" INDEX 00 25:11:07 INDEX 01 25:13:50 TRACK 04 AUDIO TITLE "IV. Finale (Andante maestoso - Allegro vivace)" INDEX 00 30:49:25 INDEX 01 30:51:17
- -



Показать сообщения:    

Текущее время: 09-Дек 12:46

Часовой пояс: UTC + 3


Вы не можете начинать темы
Вы не можете отвечать на сообщения
Вы не можете редактировать свои сообщения
Вы не можете удалять свои сообщения
Вы не можете голосовать в опросах
Вы не можете прикреплять файлы к сообщениям
Вы не можете скачивать файлы