(Orchestral) Ludwig van Beethoven - Symphonien Nrn.5 und 8 | Leopold Mozart - Kindersinfonie (Orchestre Lamoureux, Paris - Igor Markevitch / Игорь Маркевич) - 2006, FLAC (image+.cue) lossless


 

[Цитировать]

Beethoven - Symphonies
No.5 in c minor, op. 67
No.8 in F major, op. 93
-
-
-
-
- Жанр: Orchestral
Страна-производитель диска: Japan
Год издания диска: 2006
Издатель (лейбл): Philips
Дата записи: 1960/64
Аудиокодек: FLAC
Тип рипа: image+.cue
Битрейт аудио: lossless
Продолжительность: 65'42''
Источник: собственный рип
Наличие сканов в содержимом раздачи: да
Треклист:
Beethoven - Symphonie Nr.5:
[1] I. Allegro con brio
[2] II. Andante con moto
[3] III. Scherzo. Allegro
[4] IV. Allegro
Beethoven - Symphonie Nr.8:
[5] I. Allegro vivace e con brio
[6] II. Scherzando. Allegretto
[7] III. Tempo di Menuetto
[8] IV. Allegro vivace
Leopold Mozart - Kindersinfonie:
[9] I. Allegro
[10] II. Menuetto
[11] III. Presto
Исполнители:
Orchestre Lamoureux, Paris
Ensemble d'Enfants de l'Ecole de Musique de Moscow
[9-11]
Igor Markevitch-

Лог создания рипа

Exact Audio Copy V1.0 beta 3 from 29. August 2011
EAC extraction logfile from 15. October 2014, 20:37
Orchestre Lamoureux, Paris - Igor Markevitch / Beethoven - Symphonien Nos.5 und 8
Used drive : TSSTcorpCDDVDW SN-208BB Adapter: 0 ID: 1
Read mode : SecureUtilize accurate stream : YesDefeat audio cache : YesMake use of C2 pointers : No
Read offset correction : 6Overread into Lead-In and Lead-Out : NoFill up missing offset samples with silence : YesDelete leading and trailing silent blocks : NoNull samples used in CRC calculations : YesUsed interface : Native Win32 interface for Win NT & 2000
Used output format : User Defined EncoderSelected bitrate : 896 kBit/sQuality : HighAdd ID3 tag : NoCommand line compressor : C:\Program Files (x86)\FLAC\flac.exeAdditional command line options : -T "COMMENT=rip by el coronel" -8 -V %source%
TOC of the extracted CD
Track | Start | Length | Start sector | End sector --------------------------------------------------------- 1 | 0:00.00 | 7:36.72 | 0 | 34271 2 | 7:36.72 | 9:36.73 | 34272 | 77544 3 | 17:13.70 | 5:18.00 | 77545 | 101394 4 | 22:31.70 | 8:29.73 | 101395 | 139642 5 | 31:01.68 | 9:31.34 | 139643 | 182501 6 | 40:33.27 | 3:42.00 | 182502 | 199151 7 | 44:15.27 | 4:20.30 | 199152 | 218681 8 | 48:35.57 | 7:34.68 | 218682 | 252799 9 | 56:10.50 | 4:26.45 | 252800 | 272794 10 | 60:37.20 | 3:37.37 | 272795 | 289106 11 | 64:14.57 | 1:26.68 | 289107 | 295624
Range status and errors
Selected range
Filename K:\Music\Beethoven 5 8 Markevitch\Beethoven - Symphonien Nos.5 und 8.wav
Peak level 100.0 % Extraction speed 3.3 X Range quality 100.0 % Test CRC 14783B20 Copy CRC 14783B20 Copy OK
No errors occurred
AccurateRip summary
Track 1 accurately ripped (confidence 1) [86B9EE5B] (AR v2)Track 2 accurately ripped (confidence 1) [D4D8EA3B] (AR v2)Track 3 accurately ripped (confidence 1) [30D894E5] (AR v2)Track 4 accurately ripped (confidence 1) [B0E9462C] (AR v2)Track 5 accurately ripped (confidence 1) [C08D3EAF] (AR v2)Track 6 accurately ripped (confidence 1) [ADD55AD3] (AR v2)Track 7 accurately ripped (confidence 1) [18C25371] (AR v2)Track 8 accurately ripped (confidence 1) [57001D0F] (AR v2)Track 9 accurately ripped (confidence 1) [77E3588B] (AR v2)Track 10 accurately ripped (confidence 1) [FD6DB895] (AR v2)Track 11 accurately ripped (confidence 1) [C6A8EDF6] (AR v2)
All tracks accurately ripped
End of status report
==== Log checksum 65DA788CEA3B58BFA5C4E42209632C0DD84F7B41DD76F5811ADE312EEC497656 ====

Содержание индексной карты (.CUE)

REM GENRE ClassicalREM DATE 2006REM DISCID A90F650BREM COMMENT ExactAudioCopy v1.0b3TITLE "Beethoven - Symphonien Nos.5 und 8"FILE "Beethoven - Symphonien Nos.5 und 8.flac" WAVE TRACK 01 AUDIO TITLE "Beethoven - Symphonie Nr.5: I. Allegro con brio" PERFORMER "Orchestre Lamoureux, Paris - Igor Markevitch" INDEX 01 00:00:00 TRACK 02 AUDIO TITLE "II. Andante con moto" PERFORMER "Orchestre Lamoureux, Paris - Igor Markevitch" INDEX 00 07:36:01 INDEX 01 07:36:72 TRACK 03 AUDIO TITLE "III. Scherzo. Allegro" PERFORMER "Orchestre Lamoureux, Paris - Igor Markevitch" INDEX 00 17:12:72 INDEX 01 17:13:70 TRACK 04 AUDIO TITLE "IV. Allegro" PERFORMER "Orchestre Lamoureux, Paris - Igor Markevitch" INDEX 01 22:31:70 TRACK 05 AUDIO TITLE "Beethoven - Symphony No.8: I. Allegro vivace e con brio" PERFORMER "Orchestre Lamoureux, Paris - Igor Markevitch" INDEX 00 30:54:70 INDEX 01 31:01:68 TRACK 06 AUDIO TITLE "II. Scherzando. Allegretto" PERFORMER "Orchestre Lamoureux, Paris - Igor Markevitch" INDEX 00 40:31:32 INDEX 01 40:33:27 TRACK 07 AUDIO TITLE "III. Tempo di Menuetto" PERFORMER "Orchestre Lamoureux, Paris - Igor Markevitch" INDEX 00 44:13:66 INDEX 01 44:15:27 TRACK 08 AUDIO TITLE "IV. Allegro vivace" PERFORMER "Orchestre Lamoureux, Paris - Igor Markevitch" INDEX 00 48:33:67 INDEX 01 48:35:57 TRACK 09 AUDIO TITLE "Leopold Mozart - 'Kindersinfonie': I. Allegro" PERFORMER "Ensemble d'Enfants de l'Ecole de Musique de Moscow - Igor Markevitch" INDEX 00 56:04:01 INDEX 01 56:10:50 TRACK 10 AUDIO TITLE "II. Menuetto" PERFORMER "Ensemble d'Enfants de l'Ecole de Musique de Moscow - Igor Markevitch" INDEX 00 60:32:24 INDEX 01 60:37:20 TRACK 11 AUDIO TITLE "III. Presto" PERFORMER "Ensemble d'Enfants de l'Ecole de Musique de Moscow - Igor Markevitch" INDEX 00 64:09:49 INDEX 01 64:14:57



Показать сообщения:    

Текущее время: 10-Дек 08:05

Часовой пояс: UTC + 3


Вы не можете начинать темы
Вы не можете отвечать на сообщения
Вы не можете редактировать свои сообщения
Вы не можете удалять свои сообщения
Вы не можете голосовать в опросах
Вы не можете прикреплять файлы к сообщениям
Вы не можете скачивать файлы