(Classical) Maurice Ravel - Bolero; Pavane For A Dead Princess; La Valse; Rhapsodie Espagnole - The European Philharmonic Orchestra, Hymisher Greenburg - 1992, FLAC (tracks+.cue) lossless


 

[Цитировать]

Maurice Ravel - Bolero (European Philharmonic Orchestra, The)
Жанр: Classical, Neo-Romantic
Страна-производитель диска: United Kingdom
Год издания диска: 1992
Издатель (лейбл): Tring International PLC
Номер по каталогу: 5 020214 402822
Аудиокодек: FLAC
Тип рипа: tracks+.cue
Битрейт аудио: lossless
Продолжительность: 48:20
Источник: собственный рип
Наличие сканов в содержимом раздачи: нет
Треклист:
1. Bolero (15:08)
2. Pavane For A Dead Princess (6:18)
3. La Valse (12:02)
4. Rhapsodie Espagnole (14:52)
Исполнители:
Composed By – Maurice Ravel
Conductor – Hymisher Greenburg
Orchestra – European Philharmonic Orchestra, The
-

Лог создания рипа

Exact Audio Copy V1.0 beta 3 from 29. August 2011
Отчёт EAC об извлечении, выполненном 7. октября 2014, 18:37
European Philharmonic Orchestra, Hymisher Greenburg / Ravel - Bolero
Дисковод: HL-DT-STDVDRAM GT70N Adapter: 0 ID: 1
Режим чтения : ДостоверностьИспользование точного потока : ДаОтключение кэша аудио : ДаИспользование указателей C2 : Нет
Коррекция смещения при чтении : 103Способность читать области Lead-in и Lead-out : НетЗаполнение пропущенных сэмплов тишиной : ДаУдаление блоков с тишиной в начале и конце : НетПри вычислениях CRC использовались нулевые сэмплы : ДаИнтерфейс : Встроенный Win32-интерфейс для Win NT/2000Обработка зазоров : Добавлено к предыдущему треку
Выходной формат : Пользовательский кодировщикВыбранный битрейт : 896 kBit/sКачество : ВысокийДобавление ID3-тега : НетУтилита сжатия : C:\Program Files (x86)\Exact Audio Copy\Flac\flac.exeДополнительные параметры : -8 -V -T "ARTIST=%artist%" -T "TITLE=%title%" -T "ALBUM=%albumtitle%" -T "DATE=%year%" -T "TRACKNUMBER=%tracknr%" -T "GENRE=%genre%" -T "PERFORMER=%albuminterpret%" -T "COMPOSER=%composer%" %haslyrics%--tag-from-file=LYRICS="%lyricsfile%"%haslyrics% -T "ALBUMARTIST=%albumartist%" -T "DISCNUMBER=%cdnumber%" -T "TOTALDISCS=%totalcds%" -T "TOTALTRACKS=%numtracks%" -T "COMMENT=%comment%" %source% -o %dest%
TOC извлечённого CD
Трек | Старт | Длительность | Начальный сектор | Конечный сектор --------------------------------------------------------------------- 1 | 0:00.32 | 15:08.25 | 32 | 68156 2 | 15:08.57 | 6:18.15 | 68157 | 96521 3 | 21:26.72 | 12:02.10 | 96522 | 150681 4 | 33:29.07 | 14:52.23 | 150682 | 217604
Трек 1
Имя файла C:\Ravel - Bolero\1-01. European Philharmonic Orchestra, Hymisher Greenburg - Bolero.wav
Длина предзазора 0:00:02.32
Пиковый уровень 92.3 % Скорость извлечения 3.4 X Качество трека 99.9 % CRC теста 3CB12C13 CRC копии 3CB12C13 Точное извлечение (достоверность 1) [2745A956] (AR v1) Копирование... OK
Трек 2
Имя файла C:\Ravel - Bolero\1-02. European Philharmonic Orchestra, Hymisher Greenburg - Pavane For A Dead Princess.wav
Длина предзазора 0:00:08.47
Пиковый уровень 33.8 % Скорость извлечения 4.2 X Качество трека 100.0 % CRC теста A0A69E8A CRC копии A0A69E8A Точное извлечение (достоверность 1) [D8387D3A] (AR v1) Копирование... OK
Трек 3
Имя файла C:\Ravel - Bolero\1-03. European Philharmonic Orchestra, Hymisher Greenburg - La Valse.wav
Длина предзазора 0:00:04.10
Пиковый уровень 83.4 % Скорость извлечения 4.9 X Качество трека 100.0 % CRC теста 84BA66EE CRC копии 84BA66EE Точное извлечение (достоверность 1) [4D3C5772] (AR v1) Копирование... OK
Трек 4
Имя файла C:\Ravel - Bolero\1-04. European Philharmonic Orchestra, Hymisher Greenburg - Rhapsodie Espagnole.wav
Длина предзазора 0:00:09.05
Пиковый уровень 86.1 % Скорость извлечения 5.6 X Качество трека 100.0 % CRC теста 11FF0434 CRC копии 11FF0434 Точное извлечение (достоверность 1) [3E96733D] (AR v1) Копирование... OK
Все треки извлечены точно
Ошибок не произошло
Конец отчёта
==== Контрольная сумма отчёта 5CAB58077CC1B1EA3B2C704663305322A77629F92D7CFE65C43CA970D95EDD0D ====

Содержание индексной карты (.CUE)

REM GENRE ClassicalREM DISCID 230B5504REM COMMENT "ExactAudioCopy v1.0b3"PERFORMER "European Philharmonic Orchestra, Hymisher Greenburg"TITLE "Ravel - Bolero"FILE "1-01. European Philharmonic Orchestra, Hymisher Greenburg - Bolero.wav" WAVE TRACK 01 AUDIO TITLE "Bolero" PERFORMER "European Philharmonic Orchestra, Hymisher Greenburg" PREGAP 00:00:32 INDEX 01 00:00:00 TRACK 02 AUDIO TITLE "Pavane For A Dead Princess" PERFORMER "European Philharmonic Orchestra, Hymisher Greenburg" INDEX 00 14:59:53FILE "1-02. European Philharmonic Orchestra, Hymisher Greenburg - Pavane For A Dead Princess.wav" WAVE INDEX 01 00:00:00 TRACK 03 AUDIO TITLE "La Valse" PERFORMER "European Philharmonic Orchestra, Hymisher Greenburg" INDEX 00 06:14:05FILE "1-03. European Philharmonic Orchestra, Hymisher Greenburg - La Valse.wav" WAVE INDEX 01 00:00:00 TRACK 04 AUDIO TITLE "Rhapsodie Espagnole" PERFORMER "European Philharmonic Orchestra, Hymisher Greenburg" INDEX 00 11:53:05FILE "1-04. European Philharmonic Orchestra, Hymisher Greenburg - Rhapsodie Espagnole.wav" WAVE INDEX 01 00:00:00
-



Показать сообщения:    

Текущее время: 09-Дек 16:33

Часовой пояс: UTC + 3


Вы не можете начинать темы
Вы не можете отвечать на сообщения
Вы не можете редактировать свои сообщения
Вы не можете удалять свои сообщения
Вы не можете голосовать в опросах
Вы не можете прикреплять файлы к сообщениям
Вы не можете скачивать файлы