(Classical) The University of Missouri-Kansas City Accordion Orchestra, J.C. Sommers (director) - 1986 (F. Dobler, J. Halvorsen, J. Williams, G. Mohr, J. Strauss, Sr., G. Verdi), FLAC (tracks+.cue) lossless


 

[Цитировать]

The University of Missouri-Kansas City Accordion Orchestra, J.C. Sommers (director)
Жанр: Classical
Страна-производитель диска: USA
Год издания диска: 1986
Дата записи: 1986
Аудиокодек: FLAC
Тип рипа: tracks+.cue
Битрейт аудио: lossless
Продолжительность: 0:38:29.
Источник: собственный рип
Наличие сканов в содержимом раздачи: да
Треклист:
01. Werziade (Fritz Dobler) [0:06:29.60]
02. March of the Boyars (Johan Halvorsen) [0:04:33.62]
03. Medley from "E.T." (John Williams) [0:08:56.24]
04. Fantasia Iberica (Gerhard Mohr) [0:08:39.08]
05. Radetzky March (Johann Strauss, Sr.) [0:02:40.12]
06. Aida (Ballet and Chorus) (Giuseppe Verdi) [0:07:09.72]
Исполнители:
The University of Missouri-Kansas City Accordion Orchestra, Joan Cochran Sommers, director

Лог создания рипа

Exact Audio Copy V1.0 beta 3 from 29. August 2011
Отчёт EAC об извлечении, выполненном 6. октября 2014, 11:07
The University of Missouri-Kansas City Accordion Orchestra / The University of Missouri-Kansas City Accordion Orchestra, J.C. Sommers (director)
Дисковод: ASUS DRW-1814BLT Adapter: 4 ID: 0
Режим чтения : ДостоверностьИспользование точного потока : ДаОтключение кэша аудио : ДаИспользование указателей C2 : Нет
Коррекция смещения при чтении : 6Способность читать области Lead-in и Lead-out : НетЗаполнение пропущенных сэмплов тишиной : ДаУдаление блоков с тишиной в начале и конце : НетПри вычислениях CRC использовались нулевые сэмплы : ДаИнтерфейс : Встроенный Win32-интерфейс для Win NT/2000Обработка зазоров : Добавлено к предыдущему треку
Выходной формат : Пользовательский кодировщикВыбранный битрейт : 128 kBit/sКачество : ВысокийДобавление ID3-тега : НетУтилита сжатия : C:\Program Files\Exact Audio Copy\Flac\flac.exeДополнительные параметры : -V -8 -T "Genre=%genre%" -T "Artist=%artist%" -T "Title=%title%" -T "Album=%albumtitle%" -T "Date=%year%" -T "Tracknumber=%tracknr%" -T "Comment=EAC1.0b2 FLAC -8" %source%
TOC извлечённого CD
Трек | Старт | Длительность | Начальный сектор | Конечный сектор --------------------------------------------------------------------- 1 | 0:00.00 | 6:29.60 | 0 | 29234 2 | 6:29.60 | 4:33.62 | 29235 | 49771 3 | 11:03.47 | 8:56.24 | 49772 | 89995 4 | 19:59.71 | 8:39.08 | 89996 | 128928 5 | 28:39.04 | 2:40.12 | 128929 | 140940 6 | 31:19.16 | 7:09.72 | 140941 | 173187
Трек 1
Имя файла R:\Раздача 25\The University of Missouri-Kansas City Accordion Orchestra, J.C. Sommers (director) - 1986\01 Werziade.wav
Длина предзазора 0:00:02.00
Пиковый уровень 58.2 % Скорость извлечения 5.3 X Качество трека 100.0 % CRC теста 96B1CAAF CRC копии 96B1CAAF Трек не обнаружен в базе AccurateRip Копирование... OK
Трек 2
Имя файла R:\Раздача 25\The University of Missouri-Kansas City Accordion Orchestra, J.C. Sommers (director) - 1986\02 March of the Boyars.wav
Пиковый уровень 90.6 % Скорость извлечения 5.6 X Качество трека 100.0 % CRC теста 4397EECA CRC копии 4397EECA Трек не обнаружен в базе AccurateRip Копирование... OK
Трек 3
Имя файла R:\Раздача 25\The University of Missouri-Kansas City Accordion Orchestra, J.C. Sommers (director) - 1986\03 Medley from ''E.T.''.wav
Пиковый уровень 77.8 % Скорость извлечения 6.7 X Качество трека 100.0 % CRC теста 310BC9EA CRC копии 310BC9EA Трек не обнаружен в базе AccurateRip Копирование... OK
Трек 4
Имя файла R:\Раздача 25\The University of Missouri-Kansas City Accordion Orchestra, J.C. Sommers (director) - 1986\04 Fantasia Iberica.wav
Пиковый уровень 80.6 % Скорость извлечения 7.4 X Качество трека 100.0 % CRC теста 1D5D583E CRC копии 1D5D583E Трек не обнаружен в базе AccurateRip Копирование... OK
Трек 5
Имя файла R:\Раздача 25\The University of Missouri-Kansas City Accordion Orchestra, J.C. Sommers (director) - 1986\05 Radetzky March.wav
Пиковый уровень 100.0 % Скорость извлечения 6.8 X Качество трека 100.0 % CRC теста 303F0F52 CRC копии 303F0F52 Трек не обнаружен в базе AccurateRip Копирование... OK
Трек 6
Имя файла R:\Раздача 25\The University of Missouri-Kansas City Accordion Orchestra, J.C. Sommers (director) - 1986\06 Aida (Ballet and Chorus).wav
Пиковый уровень 90.3 % Скорость извлечения 6.1 X Качество трека 99.9 % CRC теста B16DE1C6 CRC копии B16DE1C6 Трек не обнаружен в базе AccurateRip Копирование... OK
Ни одного трека нет в базе AccurateRip
Ошибок не произошло
Конец отчёта
==== Контрольная сумма отчёта 700727410E8B59E1E06F31DA8892B92CF4CA11D93B8C3132532E70158F8219CB ====

Содержание индексной карты (.CUE)

REM DISCID 41090506REM COMMENT "ExactAudioCopy v1.0b3"PERFORMER "The University of Missouri-Kansas City Accordion Orchestra"TITLE "The University of Missouri-Kansas City Accordion Orchestra, J.C. Sommers (dir..."FILE "01 Werziade.wav" WAVE TRACK 01 AUDIO TITLE "Werziade" PERFORMER "The University of Missouri-Kansas City Accordion Orchestra" INDEX 01 00:00:00FILE "02 March of the Boyars.wav" WAVE TRACK 02 AUDIO TITLE "March of the Boyars" PERFORMER "The University of Missouri-Kansas City Accordion Orchestra" INDEX 01 00:00:00FILE "03 Medley from ''E.T.''.wav" WAVE TRACK 03 AUDIO TITLE "Medley from 'E.T.'" PERFORMER "The University of Missouri-Kansas City Accordion Orchestra" INDEX 01 00:00:00FILE "04 Fantasia Iberica.wav" WAVE TRACK 04 AUDIO TITLE "Fantasia Iberica" PERFORMER "The University of Missouri-Kansas City Accordion Orchestra" INDEX 01 00:00:00FILE "05 Radetzky March.wav" WAVE TRACK 05 AUDIO TITLE "Radetzky March" PERFORMER "The University of Missouri-Kansas City Accordion Orchestra" INDEX 01 00:00:00FILE "06 Aida (Ballet and Chorus).wav" WAVE TRACK 06 AUDIO TITLE "Aida (Ballet and Chorus)" PERFORMER "The University of Missouri-Kansas City Accordion Orchestra" INDEX 01 00:00:00



Показать сообщения:    

Текущее время: 07-Дек 21:23

Часовой пояс: UTC + 3


Вы не можете начинать темы
Вы не можете отвечать на сообщения
Вы не можете редактировать свои сообщения
Вы не можете удалять свои сообщения
Вы не можете голосовать в опросах
Вы не можете прикреплять файлы к сообщениям
Вы не можете скачивать файлы