(Classical) Сергей Прокофьев - Сюита из балета 'Ромео и Джульетта' | Sergei Prokofiev - Suite from 'Romeo and Juliet' (Riccardo Muti, CSO) - 2014, FLAC (image+.cue) lossless


 

[Цитировать]

Сергей Прокофьев - Сюита из балета 'Ромео и Джульетта'
Жанр: Classical
Страна-производитель диска: USA
Год издания диска: 2014
Издатель (лейбл): Chicago Symphony Orchestra
Номер по каталогу: CSOR 901 1402
Дата записи: X.2013
Аудиокодек: FLAC
Тип рипа: image+.cue
Битрейт аудио: lossless
Продолжительность: 48'52"
Источник: собственный рип
Наличие сканов в содержимом раздачи: да
Треклист:
01. Montagues and Capulets
02. Juliet the Young Girl
03. Madrigal
04. Minuet
05. Masks
06. Romeo and Juliet
07. Death of Tybalt
08. Friar Laurence
09. Romeo and Juliet befor Parting
10. Romeo at Juliet's Tomb
Исполнители:
Chicago Symphony Orchestra
Riccardo Muti
-

Лог создания рипа

Exact Audio Copy V1.0 beta 1 from 15. November 2010
EAC extraction logfile from 6. October 2014, 16:34
Sergei Prokofiev / Suite from Romeo and Juliet
Used drive : Optiarc DVD RW AD-7203A Adapter: 4 ID: 1
Read mode : SecureUtilize accurate stream : YesDefeat audio cache : YesMake use of C2 pointers : No
Read offset correction : 48Overread into Lead-In and Lead-Out : NoFill up missing offset samples with silence : YesDelete leading and trailing silent blocks : NoNull samples used in CRC calculations : YesUsed interface : Native Win32 interface for Win NT & 2000
Used output format : User Defined EncoderSelected bitrate : 128 kBit/sQuality : HighAdd ID3 tag : NoCommand line compressor : C:\Program Files\FLAC\flac.exeAdditional command line options : -T "COMMENT=Ripped by GFox" -8 -V %s
TOC of the extracted CD
Track | Start | Length | Start sector | End sector --------------------------------------------------------- 1 | 0:00.00 | 5:17.43 | 0 | 23817 2 | 5:17.43 | 4:16.72 | 23818 | 43089 3 | 9:34.40 | 3:33.38 | 43090 | 59102 4 | 13:08.03 | 3:00.24 | 59103 | 72626 5 | 16:08.27 | 2:07.43 | 72627 | 82194 6 | 18:15.70 | 7:48.56 | 82195 | 117350 7 | 26:04.51 | 4:37.47 | 117351 | 138172 8 | 30:42.23 | 2:58.06 | 138173 | 151528 9 | 33:40.29 | 8:46.51 | 151529 | 191029 10 | 42:27.05 | 6:24.72 | 191030 | 219901
Range status and errors
Selected range
Filename D:\EAC\Sergei Prokofiev - Suite from Romeo and Juliet.wav
Peak level 97.7 % Extraction speed 0.5 X Range quality 100.0 % Test CRC B2197157 Copy CRC B2197157 Copy OK
No errors occurred
AccurateRip summary
Track 1 not present in databaseTrack 2 not present in databaseTrack 3 not present in databaseTrack 4 not present in databaseTrack 5 not present in databaseTrack 6 not present in databaseTrack 7 not present in databaseTrack 8 not present in databaseTrack 9 not present in databaseTrack 10 not present in database
None of the tracks are present in the AccurateRip database
End of status report
==== Log checksum 000ED3AE733193EB4CEF48340240D921ECA8D91EE357EAEB614C2724A73EBAAE ====
-Доп. информация: Риккардо Мути знает толк в русской классике, только он умеет передать тончайшие оттенки иронии в музыке Прокофьева. На диске представлена его вторая (после замечательного релиза ныне почившей EMI) запись феерической сюиты из балета 'Ромео и Джульетта' - на этот раз с Чикагским симфоническим оркестром.



Показать сообщения:    

Текущее время: 04-Дек 06:56

Часовой пояс: UTC + 3


Вы не можете начинать темы
Вы не можете отвечать на сообщения
Вы не можете редактировать свои сообщения
Вы не можете удалять свои сообщения
Вы не можете голосовать в опросах
Вы не можете прикреплять файлы к сообщениям
Вы не можете скачивать файлы