(Orchestral) Д.Шостакович - Симфония №8 (Rundfunk-Sinfonieorchester Berlin - Arvid Jansons / Арвид Янсонс) - 2013, FLAC (image+.cue) lossless


 

[Цитировать]

Arvid Jansons
Rundfunk-Sinfonieorchester Berlin
D.Shostakovich - Symphony No.8 in c minor-
-
-
-
- Жанр: Orchestral
Страна-производитель диска: Germany
Год издания диска: 2013
Издатель (лейбл): Weitblick
Дата записи: 11.11.1981
Аудиокодек: FLAC
Тип рипа: image+.cue
Битрейт аудио: lossless
Продолжительность: 66'18''
Источник: собственный рип
Наличие сканов в содержимом раздачи: да
Треклист:
Дмитрий Шостакович - Симфония №8:
[1] I. Adagio - Allegro non troppo
[2] II. Allegretto
[3] III. Allegro non troppo
[4] IV. Largo
[5] V. Allegretto
Исполнители:
Rundfunk-Sinfonieorchester Berlin - Arvid Jansons-

Лог создания рипа

Exact Audio Copy V1.0 beta 3 from 29. August 2011
EAC extraction logfile from 2. October 2014, 21:23
Rundfunk-Sinfonieorchester Berlin - Arvid Jansons / Shostakovich - Symphony No.8
Used drive : TSSTcorpCDDVDW SN-208BB Adapter: 0 ID: 1
Read mode : SecureUtilize accurate stream : YesDefeat audio cache : YesMake use of C2 pointers : No
Read offset correction : 6Overread into Lead-In and Lead-Out : NoFill up missing offset samples with silence : YesDelete leading and trailing silent blocks : NoNull samples used in CRC calculations : YesUsed interface : Native Win32 interface for Win NT & 2000
Used output format : User Defined EncoderSelected bitrate : 896 kBit/sQuality : HighAdd ID3 tag : NoCommand line compressor : C:\Program Files (x86)\FLAC\flac.exeAdditional command line options : -T "COMMENT=rip by el coronel" -8 -V %source%
TOC of the extracted CD
Track | Start | Length | Start sector | End sector --------------------------------------------------------- 1 | 0:00.00 | 28:10.74 | 0 | 126823 2 | 28:10.74 | 6:32.46 | 126824 | 156269 3 | 34:43.45 | 6:32.31 | 156270 | 185700 4 | 41:16.01 | 11:18.05 | 185701 | 236555 5 | 52:34.06 | 13:44.12 | 236556 | 298367
Range status and errors
Selected range
Filename K:\Music\Shostakovich 8 (Arvid Jansons)\Shostakovich - Symphony No.8.wav
Peak level 91.9 % Extraction speed 3.2 X Range quality 100.0 % Test CRC C5A073E9 Copy CRC C5A073E9 Copy OK
No errors occurred
AccurateRip summary
Track 1 not present in databaseTrack 2 not present in databaseTrack 3 not present in databaseTrack 4 not present in databaseTrack 5 not present in database
None of the tracks are present in the AccurateRip database
End of status report
==== Log checksum 78C5FCBC3983738C8050D1D6C957992DFF8F4D57465FA99C0F9243821A2126F1 ====

Содержание индексной карты (.CUE)

REM GENRE ClassicalREM DATE 2013REM DISCID 470F8A05REM COMMENT "ExactAudioCopy v1.0b3"PERFORMER "Rundfunk-Sinfonieorchester Berlin - Arvid Jansons"TITLE "Shostakovich - Symphony No.8"FILE "Shostakovich - Symphony No.8.flac" WAVE TRACK 01 AUDIO TITLE "D.Shostakovich - Symphony No.8: I. Adagio - Allegro non troppo" PERFORMER "Rundfunk-Sinfonieorchester Berlin - Arvid Jansons" FLAGS DCP INDEX 01 00:00:00 TRACK 02 AUDIO TITLE "II. Allegretto" PERFORMER "Rundfunk-Sinfonieorchester Berlin - Arvid Jansons" FLAGS DCP INDEX 01 28:10:74 TRACK 03 AUDIO TITLE "III. Allegro non troppo" PERFORMER "Rundfunk-Sinfonieorchester Berlin - Arvid Jansons" FLAGS DCP INDEX 01 34:43:45 TRACK 04 AUDIO TITLE "IV. Largo" PERFORMER "Rundfunk-Sinfonieorchester Berlin - Arvid Jansons" FLAGS DCP INDEX 01 41:16:01 TRACK 05 AUDIO TITLE "V. Allegretto" PERFORMER "Rundfunk-Sinfonieorchester Berlin - Arvid Jansons" FLAGS DCP INDEX 01 52:34:06
-



Показать сообщения:    

Текущее время: 24-Янв 00:02

Часовой пояс: UTC + 3


Вы не можете начинать темы
Вы не можете отвечать на сообщения
Вы не можете редактировать свои сообщения
Вы не можете удалять свои сообщения
Вы не можете голосовать в опросах
Вы не можете прикреплять файлы к сообщениям
Вы не можете скачивать файлы