(Classical) Simfonijski orkestar Hrvatske radiotelevizije - 8 desetljeca - 2010, FLAC (tracks+.cue) lossless


 

[Цитировать]

Simfonijski orkestar Hrvatske radiotelevizije - 8 desetljeca
Жанр: Classical
Страна-производитель диска: Croatia
Год издания диска: 2010
Издатель (лейбл): Cantus
Номер по каталогу: 98898496852
Дата записи: 1969-2010
Аудиокодек: FLAC
Тип рипа: tracks+.cue
Битрейт аудио: lossless
Продолжительность: 01:17:52 + 01:15:41
Источник: собственный рип
Наличие сканов в содержимом раздачи: да
Треклист:
CD 1
01. Blagoje Bersa: Sunčana polja/Sunny Fields 14:56
Dirigent/Conductor: Milan Horvat
Bruno Bjelinski: Deveta simfonija Simfonija otoka/Ninth Symphony, “Island” 27:19
02. Allegro
03. Adagio
04. Allegretto scherzando
05. Allegro
Dirigent/Conductor: Vladimir Kranjčević
06. Boris Papandopulo: Koncert za timpane i orkestar/Concerto for timpani and orchestra 17:22
Introduzione - Marcia funebre - Scherzo fantastico
Dirigent/Conductor: Krešimir Šipuš
Bonnie Lynn–Adelson, timpani/timpani
Jakov Gotovac: Dvije simfonijske pjesme/Two Symphonic Poems
07. Dinarka, ples bola i ponosa / Dance of Grief and Dignity from the mountain Dinara, op. 24 9:27
08. Simfonijsko kolo/Symphonic Kolo, op.12 8:37
Dirigent/Conductor: Josef Daniel
CD 2
01. Vatroslav Lisinski: Grande polonaise /Velika poloneza 9:44
Stjepan Šulek: Prvi klasični koncert za orkestar /First Classical Concerto for Orchestra 13:54
02. Preludio (Allegro non troppo)
03. Siciliano (Larghetto, quasi andantino)
04. Presto — Presto possibile
Dirigent/Conductor: Pavle Dešpalj
05. Frano Parać: Sarabanda/Sarabande 11:07
Dirigent/Conductor: Uroš Lajovic
Natko Devčić: Istarska suita /Istrian suite 18:30
06. Predigra /Prelude
07. Poskočica /Jig
08. Uspavanka/ Lullaby
09. Finale
Dirigent/Conductor: Oskar Danon
10. Jakov Gotovac: Dalmaro — arija Dalmaro / Dalmaro’ s aria 8:29
Branka Stilinović, sopran / soprano
11. Ivo Josipović: Epikurov vrt / Epicurus’ Garden 14:10
Dirigent/Conductor: Nikša Bareza
Исполнители:
Croatian Radio and Television Symphony Orchestra
Conductors: Horvat, Kranjčević, Šipuš, Daniel, Dešpalj, Lajovic, Danon, Bareza

Лог создания рипа

CD1Exact Audio Copy V1.0 beta 3 from 29. August 2011
EAC extraction logfile from 1. October 2014, 15:57
Simfonijski orkestar HRT / 8 desetljeca Simfonijskog orkestra HRT
Used drive : ATAPI DVD A DH20A4P Adapter: 2 ID: 0
Read mode : SecureUtilize accurate stream : YesDefeat audio cache : YesMake use of C2 pointers : No
Read offset correction : 6Overread into Lead-In and Lead-Out : NoFill up missing offset samples with silence : YesDelete leading and trailing silent blocks : NoNull samples used in CRC calculations : YesUsed interface : Native Win32 interface for Win NT & 2000Gap handling : Appended to previous track
Used output format : User Defined EncoderSelected bitrate : 896 kBit/sQuality : HighAdd ID3 tag : NoCommand line compressor : C:\Program Files\Exact Audio Copy\FLAC\FLAC.EXEAdditional command line options : -V -8 -T "Genre=%genre%" -T "Artist=%artist%" -T "Title=%title%" -T "Album=%albumtitle%" -T "Date=%year%" -T "Tracknumber=%tracknr%" -T "Comment=%comment%" %source%
TOC of the extracted CD
Track | Start | Length | Start sector | End sector --------------------------------------------------------- 1 | 0:00.00 | 15:02.30 | 0 | 67679 2 | 15:02.30 | 10:22.43 | 67680 | 114372 3 | 25:24.73 | 6:10.14 | 114373 | 142136 4 | 31:35.12 | 2:30.59 | 142137 | 153445 5 | 34:05.71 | 8:23.42 | 153446 | 191212 6 | 42:29.38 | 17:27.50 | 191213 | 269787 7 | 59:57.13 | 9:32.08 | 269788 | 312695 8 | 69:29.21 | 8:35.17 | 312696 | 351337
Track 1
Filename D:\Music\Klasika\Croatian Radio and Television Symphony Orchestra - 8 desetljeca\CD 1\01 Blagoje Bersa - Suncana polja ,Sunny Fields.wav
Pre-gap length 0:00:02.00
Peak level 98.7 % Extraction speed 2.3 X Track quality 99.9 % Test CRC 8CB1029E Copy CRC 8CB1029E Track not present in AccurateRip database Copy OK
Track 2
Filename D:\Music\Klasika\Croatian Radio and Television Symphony Orchestra - 8 desetljeca\CD 1\02 Bruno Bjelinski - Deveta simfonija Simfonija otoka, Ninth Symphony, -Island- Allegro.wav
Peak level 92.3 % Extraction speed 2.3 X Track quality 99.9 % Test CRC F86C55BD Copy CRC C0A17168 Track not present in AccurateRip database Copy OK
Track 3
Filename D:\Music\Klasika\Croatian Radio and Television Symphony Orchestra - 8 desetljeca\CD 1\03 Bruno Bjelinski - Deveta simfonija Simfonija otoka, Ninth Symphony, -Island- Allegro.wav
Peak level 87.3 % Extraction speed 2.7 X Track quality 99.9 % Test CRC 01CF7413 Copy CRC 01CF7413 Track not present in AccurateRip database Copy OK
Track 4
Filename D:\Music\Klasika\Croatian Radio and Television Symphony Orchestra - 8 desetljeca\CD 1\04 Bruno Bjelinski - Deveta simfonija Simfonija otoka, Ninth Symphony, -Island- Allegretto Scherzando.wav
Peak level 47.6 % Extraction speed 2.9 X Track quality 100.0 % Test CRC D84DE299 Copy CRC D84DE299 Track not present in AccurateRip database Copy OK
Track 5
Filename D:\Music\Klasika\Croatian Radio and Television Symphony Orchestra - 8 desetljeca\CD 1\05 Bruno Bjelinski - Deveta simfonija Simfonija otoka, Ninth Symphony, -Island- Allegro.wav
Peak level 97.6 % Extraction speed 3.6 X Track quality 100.0 % Test CRC 85FC849B Copy CRC 85FC849B Track not present in AccurateRip database Copy OK
Track 6
Filename D:\Music\Klasika\Croatian Radio and Television Symphony Orchestra - 8 desetljeca\CD 1\06 Boris Papandopulo - Koncert za timpane i orkestar,Concerto for timpani and orchestra.wav
Peak level 98.1 % Extraction speed 4.1 X Track quality 100.0 % Test CRC 44BFB514 Copy CRC 44BFB514 Track not present in AccurateRip database Copy OK
Track 7
Filename D:\Music\Klasika\Croatian Radio and Television Symphony Orchestra - 8 desetljeca\CD 1\07 Jakov Gotovac - Dinarka, ples bola i ponosa , Dance of Grief and Dignity from the mountain Dinara, op.24.wav
Peak level 98.2 % Extraction speed 4.3 X Track quality 100.0 % Test CRC A308716F Copy CRC A308716F Track not present in AccurateRip database Copy OK
Track 8
Filename D:\Music\Klasika\Croatian Radio and Television Symphony Orchestra - 8 desetljeca\CD 1\08 Jakov Gotovac - Simfonijsko kolo,Symphonic Kolo, op.12.wav
Peak level 98.4 % Extraction speed 4.5 X Track quality 100.0 % Test CRC 417B31E5 Copy CRC 417B31E5 Track not present in AccurateRip database Copy OK
None of the tracks are present in the AccurateRip database
No errors occurred
End of status report
==== Log checksum 1CB740ECD0B24606B83EFD3AD80721B9BCCDAF40F3166E383FF0E8D087F4B25B ====
CD2Exact Audio Copy V1.0 beta 3 from 29. August 2011
EAC extraction logfile from 1. October 2014, 18:47
Simfonijski orkestar HRT / 8 desetljeca Simfonijskog orkestra HRT CD 2
Used drive : ATAPI DVD A DH20A4P Adapter: 2 ID: 0
Read mode : SecureUtilize accurate stream : YesDefeat audio cache : YesMake use of C2 pointers : No
Read offset correction : 6Overread into Lead-In and Lead-Out : NoFill up missing offset samples with silence : YesDelete leading and trailing silent blocks : NoNull samples used in CRC calculations : YesUsed interface : Native Win32 interface for Win NT & 2000Gap handling : Appended to previous track
Used output format : User Defined EncoderSelected bitrate : 896 kBit/sQuality : HighAdd ID3 tag : NoCommand line compressor : C:\Program Files\Exact Audio Copy\FLAC\FLAC.EXEAdditional command line options : -V -8 -T "Genre=%genre%" -T "Artist=%artist%" -T "Title=%title%" -T "Album=%albumtitle%" -T "Date=%year%" -T "Tracknumber=%tracknr%" -T "Comment=%comment%" %source%
TOC of the extracted CD
Track | Start | Length | Start sector | End sector --------------------------------------------------------- 1 | 0:00.00 | 9:50.00 | 0 | 44249 2 | 9:50.00 | 5:23.74 | 44250 | 68548 3 | 15:13.74 | 4:11.08 | 68549 | 87381 4 | 19:25.07 | 4:26.31 | 87382 | 107362 5 | 23:51.38 | 11:03.04 | 107363 | 157091 6 | 34:54.42 | 5:09.26 | 157092 | 180292 7 | 40:03.68 | 2:27.33 | 180293 | 191350 8 | 42:31.26 | 4:58.56 | 191351 | 213756 9 | 47:30.07 | 5:56.67 | 213757 | 240523 10 | 53:26.74 | 8:40.43 | 240524 | 279566 11 | 62:07.42 | 13:58.24 | 279567 | 342440
Track 1
Filename D:\Music\Klasika\Croatian Radio and Television Symphony Orchestra - 8 decades\CD 2\01 Vatroslav Lisinski - Grande polonaise , Velika poloneza.wav
Pre-gap length 0:00:02.00
Peak level 93.3 % Extraction speed 1.6 X Track quality 100.0 % Test CRC 132B9F35 Copy CRC 132B9F35 Track not present in AccurateRip database Copy OK
Track 2
Filename D:\Music\Klasika\Croatian Radio and Television Symphony Orchestra - 8 decades\CD 2\02 Stjepan Sulek - Prvi klasicni koncert za orkestar , First Classical Concerto for Orchestra.wav
Pre-gap length 0:00:01.47
Peak level 88.8 % Extraction speed 1.5 X Track quality 100.0 % Test CRC E647A313 Copy CRC E647A313 Track not present in AccurateRip database Copy OK
Track 3
Filename D:\Music\Klasika\Croatian Radio and Television Symphony Orchestra - 8 decades\CD 2\03 Stjepan Sulek - Prvi klasicni koncert za orkestar , First Classical Concerto for Orchestra.wav
Pre-gap length 0:00:01.73
Peak level 59.6 % Extraction speed 1.4 X Track quality 100.0 % Test CRC 77C282FC Copy CRC 77C282FC Track not present in AccurateRip database Copy OK
Track 4
Filename D:\Music\Klasika\Croatian Radio and Television Symphony Orchestra - 8 decades\CD 2\04 Stjepan Sulek - Prvi klasicni koncert za orkestar , First Classical Concerto for Orchestra.wav
Pre-gap length 0:00:01.66
Peak level 93.4 % Extraction speed 1.5 X Track quality 100.0 % Test CRC 7521CB6D Copy CRC 7521CB6D Track not present in AccurateRip database Copy OK
Track 5
Filename D:\Music\Klasika\Croatian Radio and Television Symphony Orchestra - 8 decades\CD 2\05 Frano Parac - Sarabanda , Sarabande.wav
Pre-gap length 0:00:02.00
Peak level 93.2 % Extraction speed 1.4 X Track quality 99.9 % Test CRC E0801351 Copy CRC E0801351 Track not present in AccurateRip database Copy OK
Track 6
Filename D:\Music\Klasika\Croatian Radio and Television Symphony Orchestra - 8 decades\CD 2\06 Natko Devcic - Istarska suita , Istrian suite.wav
Pre-gap length 0:00:01.47
Peak level 92.2 % Extraction speed 0.8 X Track quality 99.8 % Test CRC 80385C60 Copy CRC A32766BC Track not present in AccurateRip database Copy OK
Track 7
Filename D:\Music\Klasika\Croatian Radio and Television Symphony Orchestra - 8 decades\CD 2\07 Natko Devcic - Istarska suita , Istrian suite.wav
Pre-gap length 0:00:01.72
Peak level 68.7 % Extraction speed 1.3 X Track quality 100.0 % Test CRC F180F265 Copy CRC F180F265 Track not present in AccurateRip database Copy OK
Track 8
Filename D:\Music\Klasika\Croatian Radio and Television Symphony Orchestra - 8 decades\CD 2\08 Natko Devcic - Istarska suita , Istrian suite.wav
Pre-gap length 0:00:01.15
Peak level 67.6 % Extraction speed 1.5 X Track quality 100.0 % Test CRC 1303DF3E Copy CRC 1303DF3E Track not present in AccurateRip database Copy OK
Track 9
Filename D:\Music\Klasika\Croatian Radio and Television Symphony Orchestra - 8 decades\CD 2\09 Natko Devcic - Istarska suita , Istrian suite.wav
Pre-gap length 0:00:01.28
Peak level 76.0 % Extraction speed 1.4 X Track quality 99.9 % Test CRC 81F69C8C Copy CRC 81F69C8C Track not present in AccurateRip database Copy OK
Track 10
Filename D:\Music\Klasika\Croatian Radio and Television Symphony Orchestra - 8 decades\CD 2\10 Jakov Gotovac - Dalmaro - arija Dalmaro , Dalmaro s aria.wav
Pre-gap length 0:00:01.74
Peak level 97.0 % Extraction speed 1.4 X Track quality 99.9 % Test CRC 9924196C Copy CRC 9924196C Track not present in AccurateRip database Copy OK
Track 11
Filename D:\Music\Klasika\Croatian Radio and Television Symphony Orchestra - 8 decades\CD 2\11 Ivo Josipovic - Epikurov vrt za veliki orkestar , Epicurs Garden for Large Orchestra.wav
Pre-gap length 0:00:00.56
Peak level 93.1 % Extraction speed 1.5 X Track quality 99.9 % Test CRC 5267513B Copy CRC 5267513B Track not present in AccurateRip database Copy OK
None of the tracks are present in the AccurateRip database
No errors occurred
End of status report
==== Log checksum 6B325123EE04617CE33D4CC48C1413E9A894904DDB72F602A180A6C6F407ED80 ====

Содержание индексной карты (.CUE)

CD1REM GENRE ClassicalREM DATE 2010REM DISCID 77124C08REM COMMENT "ExactAudioCopy v1.0b3"PERFORMER "Simfonijski orkestar HRT"TITLE "8 desetljeca Simfonijskog orkestra HRT"FILE "01 Blagoje Bersa - Suncana polja ,Sunny Fields.flac" WAVE TRACK 01 AUDIO TITLE "Blagoje Bersa - Suncana polja /Sunny Fields" PERFORMER "Simfonijski orkestar HRT" INDEX 01 00:00:00FILE "02 Bruno Bjelinski - Deveta simfonija Simfonija otoka, Ninth Symphony, -Island- Allegro.flac" WAVE TRACK 02 AUDIO TITLE "Bruno Bjelinski - Deveta simfonija Simfonija otoka/ Ninth Symphony, -Island- ..." PERFORMER "Simfonijski orkestar HRT" INDEX 01 00:00:00FILE "03 Bruno Bjelinski - Deveta simfonija Simfonija otoka, Ninth Symphony, -Island- Allegro.flac" WAVE TRACK 03 AUDIO TITLE "Bruno Bjelinski - Deveta simfonija Simfonija otoka/ Ninth Symphony, -Island- ..." PERFORMER "Simfonijski orkestar HRT" INDEX 01 00:00:00FILE "04 Bruno Bjelinski - Deveta simfonija Simfonija otoka, Ninth Symphony, -Island- Allegretto Scherzando.flac" WAVE TRACK 04 AUDIO TITLE "Bruno Bjelinski - Deveta simfonija Simfonija otoka/ Ninth Symphony, -Island- ..." PERFORMER "Simfonijski orkestar HRT" INDEX 01 00:00:00FILE "05 Bruno Bjelinski - Deveta simfonija Simfonija otoka, Ninth Symphony, -Island- Allegro.flac" WAVE TRACK 05 AUDIO TITLE "Bruno Bjelinski - Deveta simfonija Simfonija otoka/ Ninth Symphony, -Island- ..." PERFORMER "Simfonijski orkestar HRT" INDEX 01 00:00:00FILE "06 Boris Papandopulo - Koncert za timpane i orkestar,Concerto for timpani and orchestra.flac" WAVE TRACK 06 AUDIO TITLE "Boris Papandopulo - Koncert za timpane i orkestar/Concerto for timpani and or..." PERFORMER "Simfonijski orkestar HRT" INDEX 01 00:00:00FILE "07 Jakov Gotovac - Dinarka, ples bola i ponosa , Dance of Grief and Dignity from the mountain Dinara, op.24.flac" WAVE TRACK 07 AUDIO TITLE "Jakov Gotovac - Dinarka, ples bola i ponosa / Dance of Grief and Dignity from..." PERFORMER "Simfonijski orkestar HRT" INDEX 01 00:00:00FILE "08 Jakov Gotovac - Simfonijsko kolo,Symphonic Kolo, op.12.flac" WAVE TRACK 08 AUDIO TITLE "Jakov Gotovac - Simfonijsko kolo/Symphonic Kolo, op.12" PERFORMER "Simfonijski orkestar HRT" INDEX 01 00:00:00
CD2REM GENRE ClassicalREM DATE 2010REM DISCID 9911D50BREM COMMENT "ExactAudioCopy v1.0b3"PERFORMER "Simfonijski orkestar HRT"TITLE "8 desetljeca Simfonijskog orkestra HRT CD 2"FILE "01 Vatroslav Lisinski - Grande polonaise , Velika poloneza.flac" WAVE TRACK 01 AUDIO TITLE "Vatroslav Lisinski - Grande polonaise / Velika poloneza" PERFORMER "Simfonijski orkestar HRT" INDEX 01 00:00:00 TRACK 02 AUDIO TITLE "Stjepan Sulek - Prvi klasicni koncert za orkestar / First Classical Concerto ..." PERFORMER "Simfonijski orkestar HRT" INDEX 00 09:48:28FILE "02 Stjepan Sulek - Prvi klasicni koncert za orkestar , First Classical Concerto for Orchestra.flac" WAVE INDEX 01 00:00:00 TRACK 03 AUDIO TITLE "Stjepan Sulek - Prvi klasicni koncert za orkestar / First Classical Concerto ..." PERFORMER "Simfonijski orkestar HRT" INDEX 00 05:22:01FILE "03 Stjepan Sulek - Prvi klasicni koncert za orkestar , First Classical Concerto for Orchestra.flac" WAVE INDEX 01 00:00:00 TRACK 04 AUDIO TITLE "Stjepan Sulek - Prvi klasicni koncert za orkestar / First Classical Concerto ..." PERFORMER "Simfonijski orkestar HRT" INDEX 00 04:09:17FILE "04 Stjepan Sulek - Prvi klasicni koncert za orkestar , First Classical Concerto for Orchestra.flac" WAVE INDEX 01 00:00:00 TRACK 05 AUDIO TITLE "Frano Parac - Sarabanda / Sarabande" PERFORMER "Simfonijski orkestar HRT" INDEX 00 04:24:31FILE "05 Frano Parac - Sarabanda , Sarabande.flac" WAVE INDEX 01 00:00:00 TRACK 06 AUDIO TITLE "Natko Devcic - Istarska suita / Istrian suite" PERFORMER "Simfonijski orkestar HRT" INDEX 00 11:01:32FILE "06 Natko Devcic - Istarska suita , Istrian suite.flac" WAVE INDEX 01 00:00:00 TRACK 07 AUDIO TITLE "Natko Devcic - Istarska suita / Istrian suite" PERFORMER "Simfonijski orkestar HRT" INDEX 00 05:07:29FILE "07 Natko Devcic - Istarska suita , Istrian suite.flac" WAVE INDEX 01 00:00:00 TRACK 08 AUDIO TITLE "Natko Devcic - Istarska suita / Istrian suite" PERFORMER "Simfonijski orkestar HRT" INDEX 00 02:26:18FILE "08 Natko Devcic - Istarska suita , Istrian suite.flac" WAVE INDEX 01 00:00:00 TRACK 09 AUDIO TITLE "Natko Devcic - Istarska suita / Istrian suite" PERFORMER "Simfonijski orkestar HRT" INDEX 00 04:57:28FILE "09 Natko Devcic - Istarska suita , Istrian suite.flac" WAVE INDEX 01 00:00:00 TRACK 10 AUDIO TITLE "Jakov Gotovac - Dalmaro - arija Dalmaro / Dalmaro s aria" PERFORMER "Simfonijski orkestar HRT" INDEX 00 05:54:68FILE "10 Jakov Gotovac - Dalmaro - arija Dalmaro , Dalmaro s aria.flac" WAVE INDEX 01 00:00:00 TRACK 11 AUDIO TITLE "Ivo Josipovic - Epikurov vrt za veliki orkestar / Epicurs Garden for Large Or..." PERFORMER "Simfonijski orkestar HRT" INDEX 00 08:39:62FILE "11 Ivo Josipovic - Epikurov vrt za veliki orkestar , Epicurs Garden for Large Orchestra.flac" WAVE INDEX 01 00:00:00
Доп. информация: https://www.youtube.com/watch?v=8tQKZGgz5lU
http://tisakmedia.hr/Artikl/Glazba-CD-8-desetljeca-...cscHJcMTE2NDA%3D



Показать сообщения:    

Текущее время: 11-Дек 03:22

Часовой пояс: UTC + 3


Вы не можете начинать темы
Вы не можете отвечать на сообщения
Вы не можете редактировать свои сообщения
Вы не можете удалять свои сообщения
Вы не можете голосовать в опросах
Вы не можете прикреплять файлы к сообщениям
Вы не можете скачивать файлы