(Classical) Antonin Dvorak — Symphony № 9 Op 95 • Slavonic Dances 1-4 (Славянские танцы) (Anton Nanut, Frank Shipway, Alfred Scholz) — 1994, APE (image+.cue) lossless


 

[Цитировать]

Symphony № 9 Op 95 • Slavonic Dances 1-4- Жанр: Classical
Страна-производитель диска: Нидерланды
Год издания диска: 1994
Издатель (лейбл): ONYX Classix
Номер по каталогу: 66372
CATALOG: 5021364663729
Композитор: Antonin Dvorak
Аудио кодек: ape
Тип рипа: image+.cue
Битрейт аудио: lossless
Продолжительность: 01h00'42"
Источник: собственный рип
Наличие сканов в содержимом раздачи: нет-Треклист:
Symphony № 9 e-moll Op 95 «From the New World»
01. I. Adagio – Allegro molto [00h09'09"]
02. II. Largo [00h12'16"]
03. III. Scherzo: Molto vivace [00h07'47"]
04. IV. Finale: Allegro con fuoco [00h11'24"]
05. Slavonic Dance № 1 C-Dur Op 46/1 «Furiant» [00h03'26"]
06. Slavonic Dance № 2 e-moll Op 46/2 «Dumka» [00h05'36"]
07. Slavonic Dance № 3 As-Dur Op 46/3 «Polka» [00h04'28"]
08. Slavonic Dance № 4 E-Dur Op 46/4 «Soudeska» [00h06'35"]-(01-04) Radio Symphony Orchestra Ljubljana, cond. Anton Nanut
(05) Royal Philharmonic Orchestra, cond. Frank Shipway
(06) London Symphony Orchestra, cond. Alfred Scholz
(07-08) London Festival Orchestra, cond. Alfred Scholz-

EAC log

Exact Audio Copy V0.99 prebeta 5 from 4. May 2009
Отчёт EAC об извлечении, выполненном 20. сентября 2014, 15:55
Dvorak / Symphony 9 & Slavonic Dances 1-4
Дисковод: MITSUMI CR-486ETE   Adapter: 1  ID: 0
Режим чтения                 : Достоверность
Использование точного потока : Да
Отключение кэша аудио        : Да
Использование указателей C2  : Нет
Коррекция смещения при чтении                     : 6
Способность читать области Lead-in и Lead-out     : Нет
Заполнение пропущенных сэмплов тишиной            : Да
Удаление блоков с тишиной в начале и конце        : Нет
При вычислениях CRC использовались нулевые сэмплы : Да
Интерфейс                                         : Установленный внешний ASPI-интерфейс
Выходной формат          : Monkey's Audio (без потерь)
Выбранный битрейт        : Normal Lossless Compression
Качество                 : Высокий
Добавление ID3-тэга      : Нет
Утилита сжатия           : C:\Program Files\Monkey's Audio\MAC.exe
TOC извлечённого CD
     Трек |   Старт  | Длительность | Начальный сектор | Конечный сектор
    ---------------------------------------------------------------------
       1  |  0:00.00 |    9:09.32   |           0      |      41206
       2  |  9:09.32 |   12:15.50   |       41207      |      96381
       3  | 21:25.07 |    7:46.48   |       96382      |     131379
       4  | 29:11.55 |   11:24.02   |      131380      |     182681
       5  | 40:35.57 |    3:26.13   |      182682      |     198144
       6  | 44:01.70 |    5:36.10   |      198145      |     223354
       7  | 49:38.05 |    4:28.35   |      223355      |     243489
       8  | 54:06.40 |    6:35.25   |      243490      |     273139
Характеристики диапазона извлечения и сообщения об ошибках
Выбранный диапазон
     Имя файла D:\Музыка lossless\Dvorak Symphony 9 & Slavonic Dances 1-4\Dvorak - Symphony 9 & Slavonic Dances 1-4.wav
     Пиковый уровень 70.2 %
     Качество диапазона 100.0 %
     CRC теста 17464975
     CRC копии 17464975
     Копирование... OK
Ошибок не произошло
AccurateRip: сводка
Трек  1  точность не определена (достоверность 1)  [9EB5A2BC], AccurateRip вернул [5C25F950]
Трек  2  точность не определена (достоверность 1)  [7EAD4477], AccurateRip вернул [4C74AFB3]
Трек  3  точность не определена (достоверность 1)  [C3364135], AccurateRip вернул [D5A394B0]
Трек  4  точность не определена (достоверность 1)  [254B8885], AccurateRip вернул [BA21F801]
Трек  5  точность не определена (достоверность 1)  [42E5E060], AccurateRip вернул [A4BED24F]
Трек  6  точность не определена (достоверность 1)  [DC85A3C5], AccurateRip вернул [2CD060E3]
Трек  7  точность не определена (достоверность 1)  [4BD48C62], AccurateRip вернул [027FD878]
Трек  8  точность не определена (достоверность 1)  [92B0EE87], AccurateRip вернул [D6C4A4B5]
Ни один трек не прошёл проверки на точность
В вашей базе может быть иной вариант штамповки диска
Конец отчёта

-

CUE

REM GENRE Classical
REM DATE 1994
REM DISCID 720E3908
REM COMMENT "ExactAudioCopy v0.99pb5"
PERFORMER "Dvorak"
TITLE "Symphony 9 & Slavonic Dances 1-4"
FILE "Dvorak - Symphony 9 & Slavonic Dances 1-4.ape" WAVE
  TRACK 01 AUDIO
    TITLE "Symphony № 9 e-moll Op 95 «From the New World» – I. Adagio – Allegro molto"
    PERFORMER "Dvorak"
    INDEX 01 00:00:00
  TRACK 02 AUDIO
    TITLE "Symphony № 9 e-moll Op 95 «From the New World» – II. Largo"
    PERFORMER "Dvorak"
    INDEX 00 09:03:52
    INDEX 01 09:09:32
  TRACK 03 AUDIO
    TITLE "Symphony № 9 e-moll Op 95 «From the New World» – III. Scherzo: Molto vivace"
    PERFORMER "Dvorak"
    INDEX 00 21:20:52
    INDEX 01 21:25:07
  TRACK 04 AUDIO
    TITLE "Symphony № 9 e-moll Op 95 «From the New World» – IV. Finale: Allegro con fuoco"
    PERFORMER "Dvorak"
    INDEX 00 29:08:67
    INDEX 01 29:11:55
  TRACK 05 AUDIO
    TITLE "Slavonic Dance № 1 C-Dur Op 46/1 «Furiant»"
    PERFORMER "Dvorak"
    INDEX 00 40:25:10
    INDEX 01 40:35:57
  TRACK 06 AUDIO
    TITLE "Slavonic Dance № 2 e-moll Op 46/2 «Dumka»"
    PERFORMER "Dvorak"
    INDEX 00 43:58:30
    INDEX 01 44:01:70
  TRACK 07 AUDIO
    TITLE "Slavonic Dance № 3 As-Dur Op 46/3 «Polka»"
    PERFORMER "Dvorak"
    INDEX 00 49:34:00
    INDEX 01 49:38:05
  TRACK 08 AUDIO
    TITLE "Slavonic Dance № 4 E-Dur Op 46/4 «Soudeska»"
    PERFORMER "Dvorak"
    INDEX 00 54:02:25
    INDEX 01 54:06:40
-



Показать сообщения:    

Текущее время: 06-Дек 20:59

Часовой пояс: UTC + 3


Вы не можете начинать темы
Вы не можете отвечать на сообщения
Вы не можете редактировать свои сообщения
Вы не можете удалять свои сообщения
Вы не можете голосовать в опросах
Вы не можете прикреплять файлы к сообщениям
Вы не можете скачивать файлы