(Orchestral) Anton Bruckner - Symphonien Nrn.4-9 ([New] Philharmonia Orchestra - Otto Klemperer) - 2012, FLAC (image+.cue) lossless


 

[Цитировать]

BRUCKNER
Symphonies 4-9
PHILHARMONIA ORCHESTRA
NEW PHILHARMONIA ORCHESTRA

OTTO KLEMPERER
-
-
- Жанр: Orchestral
Страна-производитель диска: EU
Год издания диска: 2012
Издатель (лейбл): Warner (EMI)
Дата записи: 1960s/70s
Аудиокодек: FLAC
Тип рипа: image+.cue
Битрейт аудио: lossless
Продолжительность: 6:50'21''
Источник: собственный рип
Наличие сканов в содержимом раздачи: да
Треклист:

CD1

Symphonie Nr.4 Es-Dur »Romantische«
[1] I. Bewegt, nicht zu schnell
[2] II. Andante quasi allegretto
[3] III. Scherzo: Bewegt - Trio: Nicht zu schnell
[4] IV. Finale: Bewegt, doch nicht zu schnell

Лог создания рипа

Exact Audio Copy V1.0 beta 3 from 29. August 2011
EAC extraction logfile from 25. September 2014, 20:44
Philharmonia Orchestra - Otto Klemperer / Bruckner - Symphonien 4-9 (CD1)
Used drive : TSSTcorpCDDVDW SN-208BB Adapter: 0 ID: 1
Read mode : SecureUtilize accurate stream : YesDefeat audio cache : YesMake use of C2 pointers : No
Read offset correction : 6Overread into Lead-In and Lead-Out : NoFill up missing offset samples with silence : YesDelete leading and trailing silent blocks : NoNull samples used in CRC calculations : YesUsed interface : Native Win32 interface for Win NT & 2000
Used output format : User Defined EncoderSelected bitrate : 896 kBit/sQuality : HighAdd ID3 tag : NoCommand line compressor : C:\Program Files (x86)\FLAC\flac.exeAdditional command line options : -T "COMMENT=rip by el coronel" -8 -V %source%
TOC of the extracted CD
Track | Start | Length | Start sector | End sector --------------------------------------------------------- 1 | 0:00.00 | 16:10.61 | 0 | 72810 2 | 16:10.61 | 14:00.01 | 72811 | 135811 3 | 30:10.62 | 11:48.37 | 135812 | 188948 4 | 41:59.24 | 19:01.72 | 188949 | 274595
Range status and errors
Selected range
Filename K:\Music\Bruckner 4-9 Klemperer (Philharmonia)\Bruckner - Symphonien 4-9 (CD1).wav
Peak level 96.2 % Extraction speed 3.0 X Range quality 99.9 % Test CRC 50BBA646 Copy CRC 50BBA646 Copy OK
No errors occurred
AccurateRip summary
Track 1 accurately ripped (confidence 15) [00D7DAB8] (AR v2)Track 2 accurately ripped (confidence 15) [C53DB22E] (AR v2)Track 3 accurately ripped (confidence 15) [372C21C3] (AR v2)Track 4 accurately ripped (confidence 14) [B8FE7980] (AR v2)
All tracks accurately ripped
End of status report
==== Log checksum EF0D32DD9F138E5BDEA9C395B434102C135D54D3B3C1CC3857887E28D0EC7AB2 ====

Содержание индексной карты (.CUE)

REM GENRE ClassicalREM DATE 2012REM DISCID 2A0E4D04REM COMMENT "ExactAudioCopy v1.0b3"PERFORMER "Philharmonia Orchestra - Otto Klemperer"TITLE "Bruckner - Symphonien 4-9 (CD1)"FILE "Bruckner - Symphonien 4-9 (CD1).flac" WAVE TRACK 01 AUDIO TITLE "Symphonie Nr.4: I. Bewegt, nicht zu schnell" PERFORMER "Philharmonia Orchestra - Otto Klemperer" INDEX 01 00:00:00 TRACK 02 AUDIO TITLE "II. Andante quasi allegretto" PERFORMER "Philharmonia Orchestra - Otto Klemperer" INDEX 00 16:06:56 INDEX 01 16:10:61 TRACK 03 AUDIO TITLE "III. Scherzo: Bewegt - Trio: Nicht zu schnell" PERFORMER "Philharmonia Orchestra - Otto Klemperer" INDEX 00 30:05:66 INDEX 01 30:10:62 TRACK 04 AUDIO TITLE "IV. Finale: Bewegt, doch nicht zu schnell" PERFORMER "Philharmonia Orchestra - Otto Klemperer" INDEX 00 41:54:73 INDEX 01 41:59:24

CD2

Symphonie Nr.5 B-Dur
[1] I. Introduction: Adagio - Allegro
[2] II. Adagio - Sehr langsam
[3] III. Scherzo: Molto vivace - Schnell
[4] IV. Finale: Allegro moderto

Лог создания рипа

Exact Audio Copy V1.0 beta 3 from 29. August 2011
EAC extraction logfile from 25. September 2014, 19:59
New Philharmonia Orchestra - Otto Klemperer / Bruckner - Symphonien 4-9 (CD2)
Used drive : TSSTcorpCDDVDW SN-208BB Adapter: 0 ID: 1
Read mode : SecureUtilize accurate stream : YesDefeat audio cache : YesMake use of C2 pointers : No
Read offset correction : 6Overread into Lead-In and Lead-Out : NoFill up missing offset samples with silence : YesDelete leading and trailing silent blocks : NoNull samples used in CRC calculations : YesUsed interface : Native Win32 interface for Win NT & 2000
Used output format : User Defined EncoderSelected bitrate : 896 kBit/sQuality : HighAdd ID3 tag : NoCommand line compressor : C:\Program Files (x86)\FLAC\flac.exeAdditional command line options : -T "COMMENT=rip by el coronel" -8 -V %source%
TOC of the extracted CD
Track | Start | Length | Start sector | End sector --------------------------------------------------------- 1 | 0:00.32 | 21:20.60 | 32 | 96091 2 | 21:21.17 | 16:37.00 | 96092 | 170866 3 | 37:58.17 | 14:44.43 | 170867 | 237209 4 | 52:42.60 | 26:46.50 | 237210 | 357709
Range status and errors
Selected range
Filename K:\Music\Bruckner 4-9 Klemperer (Philharmonia)\Bruckner - Symphonien 4-9 (CD2).wav
Peak level 84.5 % Extraction speed 3.4 X Range quality 99.9 % Test CRC 84F81496 Copy CRC 84F81496 Copy OK
No errors occurred
AccurateRip summary
Track 1 accurately ripped (confidence 17) [2B5C1E3E] (AR v2)Track 2 accurately ripped (confidence 17) [D4468D91] (AR v2)Track 3 accurately ripped (confidence 17) [42E42885] (AR v2)Track 4 accurately ripped (confidence 17) [C7BCF28C] (AR v2)
All tracks accurately ripped
End of status report
==== Log checksum 9BC59188AC4083FB61BDE780ACA8446C3D0D07BA93E06562E0B901BD5E366249 ====

Содержание индексной карты (.CUE)

REM GENRE ClassicalREM DATE 2012REM DISCID 2A12A104REM COMMENT "ExactAudioCopy v1.0b3"PERFORMER "New Philharmonia Orchestra - Otto Klemperer"TITLE "Bruckner - Symphonien 4-9 (CD2)"FILE "Bruckner - Symphonien 4-9 (CD2).flac" WAVE TRACK 01 AUDIO TITLE "Symphonie Nr.5: I. Introduction: Adagio - Allegro" PERFORMER "New Philharmonia Orchestra - Otto Klemperer" INDEX 00 00:00:00 INDEX 01 00:00:32 TRACK 02 AUDIO TITLE "II. Adagio - Sehr langsam" PERFORMER "New Philharmonia Orchestra - Otto Klemperer" INDEX 00 21:21:15 INDEX 01 21:21:17 TRACK 03 AUDIO TITLE "III. Scherzo: Molto vivace - Schnell" PERFORMER "New Philharmonia Orchestra - Otto Klemperer" INDEX 00 37:58:15 INDEX 01 37:58:17 TRACK 04 AUDIO TITLE "IV. Finale: Allegro moderto" PERFORMER "New Philharmonia Orchestra - Otto Klemperer" INDEX 00 52:42:57 INDEX 01 52:42:60

CD3

Symphonie Nr.7 E-Dur
[1] I. Allegro moderato
[2] II. Adagio - Sehr feierlich und sehr langsam
[3] III.Scherzo - Sehr schnell
[4] IV. Finale - Bewegt, doch nicht schnell

Лог создания рипа

Exact Audio Copy V1.0 beta 3 from 29. August 2011
EAC extraction logfile from 25. September 2014, 21:40
Philharmonia Orchestra - Otto Klemperer / Bruckner - Symphonien 4-9 (CD3)
Used drive : TSSTcorpCDDVDW SN-208BB Adapter: 0 ID: 1
Read mode : SecureUtilize accurate stream : YesDefeat audio cache : YesMake use of C2 pointers : No
Read offset correction : 6Overread into Lead-In and Lead-Out : NoFill up missing offset samples with silence : YesDelete leading and trailing silent blocks : NoNull samples used in CRC calculations : YesUsed interface : Native Win32 interface for Win NT & 2000
Used output format : User Defined EncoderSelected bitrate : 896 kBit/sQuality : HighAdd ID3 tag : NoCommand line compressor : C:\Program Files (x86)\FLAC\flac.exeAdditional command line options : -T "COMMENT=rip by el coronel" -8 -V %source%
TOC of the extracted CD
Track | Start | Length | Start sector | End sector --------------------------------------------------------- 1 | 0:00.00 | 19:55.41 | 0 | 89665 2 | 19:55.41 | 21:51.13 | 89666 | 188003 3 | 41:46.54 | 9:41.69 | 188004 | 231647 4 | 51:28.48 | 13:42.45 | 231648 | 293342
Range status and errors
Selected range
Filename K:\Music\Bruckner 4-9 Klemperer (Philharmonia)\Bruckner - Symphonien 4-9 (CD3).wav
Peak level 84.1 % Extraction speed 3.0 X Range quality 100.0 % Test CRC 5BB60DBF Copy CRC 5BB60DBF Copy OK
No errors occurred
AccurateRip summary
Track 1 accurately ripped (confidence 18) [9CFB4A9E] (AR v2)Track 2 accurately ripped (confidence 18) [3A87B277] (AR v2)Track 3 accurately ripped (confidence 18) [EB6AFDB4] (AR v2)Track 4 accurately ripped (confidence 18) [ADF9A0EA] (AR v2)
All tracks accurately ripped
End of status report
==== Log checksum C4E88757D823D4B602560CD37612968198C900DFF857F48939F160CF6A2937B6 ====

Содержание индексной карты (.CUE)

REM GENRE ClassicalREM DATE 2012REM DISCID 2F0F4704REM COMMENT "ExactAudioCopy v1.0b3"PERFORMER "Philharmonia Orchestra - Otto Klemperer"TITLE "Bruckner - Symphonien 4-9 (CD3)"FILE "Bruckner - Symphonien 4-9 (CD3).flac" WAVE TRACK 01 AUDIO TITLE "Symphonie Nr.7: I. Allegro moderato" PERFORMER "Philharmonia Orchestra - Otto Klemperer" INDEX 01 00:00:00 TRACK 02 AUDIO TITLE "II. Adagio - Sehr feierlich und sehr langsam" PERFORMER "Philharmonia Orchestra - Otto Klemperer" INDEX 01 19:55:41 TRACK 03 AUDIO TITLE "III.Scherzo - Sehr schnell" PERFORMER "Philharmonia Orchestra - Otto Klemperer" INDEX 01 41:46:54 TRACK 04 AUDIO TITLE "IV. Finale - Bewegt, doch nicht schnell" PERFORMER "Philharmonia Orchestra - Otto Klemperer" INDEX 01 51:28:48

CD4

Symphonie Nr.8 c-moll
[1] I. Allegro moderato
[2] II. Scherzo: Allegro moderato - Trio: Langsam
[3] III. Feierlich langsam

Лог создания рипа

Exact Audio Copy V1.0 beta 3 from 29. August 2011
EAC extraction logfile from 28. September 2014, 14:46
New Philharmonia Orchestra - Otto Klemperer / Bruckner - Symphonien 4-9 (CD4)
Used drive : TSSTcorpCDDVDW SN-208BB Adapter: 0 ID: 1
Read mode : SecureUtilize accurate stream : YesDefeat audio cache : YesMake use of C2 pointers : No
Read offset correction : 6Overread into Lead-In and Lead-Out : NoFill up missing offset samples with silence : YesDelete leading and trailing silent blocks : NoNull samples used in CRC calculations : YesUsed interface : Native Win32 interface for Win NT & 2000
Used output format : User Defined EncoderSelected bitrate : 896 kBit/sQuality : HighAdd ID3 tag : NoCommand line compressor : C:\Program Files (x86)\FLAC\flac.exeAdditional command line options : -T "COMMENT=rip by el coronel" -8 -V %source%
TOC of the extracted CD
Track | Start | Length | Start sector | End sector --------------------------------------------------------- 1 | 0:00.00 | 17:56.18 | 0 | 80717 2 | 17:56.18 | 19:53.11 | 80718 | 170203 3 | 37:49.29 | 26:59.74 | 170204 | 291702
Range status and errors
Selected range
Filename K:\Music\Bruckner 4-9 Klemperer (Philharmonia)\Bruckner - Symphonien 4-9 (CD4).wav
Peak level 97.4 % Extraction speed 3.0 X Range quality 99.9 % Test CRC 6A740CCA Copy CRC 6A740CCA Copy OK
No errors occurred
AccurateRip summary
Track 1 accurately ripped (confidence 17) [54FAA32E] (AR v2)Track 2 accurately ripped (confidence 17) [827DE411] (AR v2)Track 3 accurately ripped (confidence 16) [AF6599BC] (AR v2)
All tracks accurately ripped
End of status report
==== Log checksum 9CB27F43524BCBAB402E78D810A43DA1BFB56B2A326FB3B512738924BD1D64C9 ====

Содержание индексной карты (.CUE)

REM GENRE ClassicalREM DATE 2012REM DISCID 1E0F3103REM COMMENT "ExactAudioCopy v1.0b3"PERFORMER "New Philharmonia Orchestra - Otto Klemperer"TITLE "Bruckner - Symphonien 4-9 (CD4)"FILE "Bruckner - Symphonien 4-9 (CD4).flac" WAVE TRACK 01 AUDIO TITLE "Symphonie Nr.8: I. Allegro moderato" PERFORMER "New Philharmonia Orchestra - Otto Klemperer" INDEX 01 00:00:00 TRACK 02 AUDIO TITLE "II. Scherzo: Allegro moderato - Trio: Langsam" PERFORMER "New Philharmonia Orchestra - Otto Klemperer" INDEX 01 17:56:18 TRACK 03 AUDIO TITLE "III. Feierlich langsam" PERFORMER "New Philharmonia Orchestra - Otto Klemperer" INDEX 01 37:49:29

CD5

Symphonie Nr.8 c-moll
[1] IV. Finale: Feierlich, nicht schnell
Symphonie Nr.6 A-Dur
[2] I. Majestoso
[3] II. Adagio: Sehr feierlich
[4] III. Scherzo: Nicht schnell - Trio: Langsam
[5] VI. Finale: Bewegt, doch nicht zu schnell

Лог создания рипа

Exact Audio Copy V1.0 beta 3 from 29. August 2011
EAC extraction logfile from 28. September 2014, 16:34
New Philharmonia Orchestra - Otto Klemperer / Bruckner - Symphonien 4-9 (CD5)
Used drive : TSSTcorpCDDVDW SN-208BB Adapter: 0 ID: 1
Read mode : SecureUtilize accurate stream : YesDefeat audio cache : YesMake use of C2 pointers : No
Read offset correction : 6Overread into Lead-In and Lead-Out : NoFill up missing offset samples with silence : YesDelete leading and trailing silent blocks : NoNull samples used in CRC calculations : YesUsed interface : Native Win32 interface for Win NT & 2000
Used output format : User Defined EncoderSelected bitrate : 896 kBit/sQuality : HighAdd ID3 tag : NoCommand line compressor : C:\Program Files (x86)\FLAC\flac.exeAdditional command line options : -T "COMMENT=rip by el coronel" -8 -V %source%
TOC of the extracted CD
Track | Start | Length | Start sector | End sector --------------------------------------------------------- 1 | 0:00.00 | 19:38.12 | 0 | 88361 2 | 19:38.12 | 16:55.61 | 88362 | 164547 3 | 36:33.73 | 14:42.41 | 164548 | 230738 4 | 51:16.39 | 9:23.33 | 230739 | 272996 5 | 60:39.72 | 13:50.61 | 272997 | 335307
Range status and errors
Selected range
Filename K:\Music\Bruckner 4-9 Klemperer (Philharmonia)\Bruckner - Symphonien 4-9 (CD5).wav
Peak level 97.2 % Extraction speed 3.3 X Range quality 100.0 % Test CRC 9F6AECEE Copy CRC 9F6AECEE Copy OK
No errors occurred
AccurateRip summary
Track 1 accurately ripped (confidence 17) [C72F263C] (AR v2)Track 2 accurately ripped (confidence 15) [BF23ABBA] (AR v2)Track 3 accurately ripped (confidence 15) [AE1AC057] (AR v2)Track 4 accurately ripped (confidence 15) [859FDB9E] (AR v2)Track 5 accurately ripped (confidence 15) [BFCFD76E] (AR v2)
All tracks accurately ripped
End of status report
==== Log checksum E5644D3CCD4A59B5EA3CABB489F7165D9EE86E3C8341386A3A687BC81AEC898D ====

Содержание индексной карты (.CUE)

REM GENRE ClassicalREM DATE 2012REM DISCID 3D117605REM COMMENT "ExactAudioCopy v1.0b3"PERFORMER "New Philharmonia Orchestra - Otto Klemperer"TITLE "Bruckner - Symphonien 4-9 (CD5)"FILE "Bruckner - Symphonien 4-9 (CD5).flac" WAVE TRACK 01 AUDIO TITLE "Symphonie Nr.8: IV. Finale: Feierlich, nicht schnell" PERFORMER "New Philharmonia Orchestra - Otto Klemperer" INDEX 01 00:00:00 TRACK 02 AUDIO TITLE "Symphonie Nr.6: I. Majestoso" PERFORMER "New Philharmonia Orchestra - Otto Klemperer" INDEX 00 19:26:44 INDEX 01 19:38:12 TRACK 03 AUDIO TITLE "II. Adagio: Sehr feierlich" PERFORMER "New Philharmonia Orchestra - Otto Klemperer" INDEX 01 36:33:73 TRACK 04 AUDIO TITLE "III. Scherzo: Nicht schnell - Trio: Langsam" PERFORMER "New Philharmonia Orchestra - Otto Klemperer" INDEX 01 51:16:39 TRACK 05 AUDIO TITLE "VI. Finale: Bewegt, doch nicht zu schnell" PERFORMER "New Philharmonia Orchestra - Otto Klemperer" INDEX 01 60:39:72

CD6

Symphonie Nr.9 d-moll
[1] I. Feierlich, misterioso
[2] II. Scherzo: Bewegt, lebhaft - Trio: Schnell
[3] III. Adagio: Langsam, feierlich

Лог создания рипа

Exact Audio Copy V1.0 beta 3 from 29. August 2011
EAC extraction logfile from 28. September 2014, 17:23
New Philharmonia Orchestra - Otto Klemperer / Bruckner - Symphonien 4-9 (CD6)
Used drive : TSSTcorpCDDVDW SN-208BB Adapter: 0 ID: 1
Read mode : SecureUtilize accurate stream : YesDefeat audio cache : YesMake use of C2 pointers : No
Read offset correction : 6Overread into Lead-In and Lead-Out : NoFill up missing offset samples with silence : YesDelete leading and trailing silent blocks : NoNull samples used in CRC calculations : YesUsed interface : Native Win32 interface for Win NT & 2000
Used output format : User Defined EncoderSelected bitrate : 896 kBit/sQuality : HighAdd ID3 tag : NoCommand line compressor : C:\Program Files (x86)\FLAC\flac.exeAdditional command line options : -T "COMMENT=rip by el coronel" -8 -V %source%
TOC of the extracted CD
Track | Start | Length | Start sector | End sector --------------------------------------------------------- 1 | 0:00.32 | 26:43.23 | 32 | 120279 2 | 26:43.55 | 11:23.17 | 120280 | 171521 3 | 38:06.72 | 27:12.03 | 171522 | 293924
Range status and errors
Selected range
Filename K:\Music\Bruckner 4-9 Klemperer (Philharmonia)\Bruckner - Symphonien 4-9 (CD6).wav
Peak level 98.8 % Extraction speed 3.0 X Range quality 100.0 % Test CRC 2D43652F Copy CRC 2D43652F Copy OK
No errors occurred
AccurateRip summary
Track 1 accurately ripped (confidence 17) [10F9925D] (AR v2)Track 2 accurately ripped (confidence 17) [FC2CB9F3] (AR v2)Track 3 accurately ripped (confidence 17) [7E0E7297] (AR v2)
All tracks accurately ripped
End of status report
==== Log checksum 94750DC31F52210226024F994C751BB515C51744F1F36F9A6E926854500D49AC ====

Содержание индексной карты (.CUE)

REM GENRE ClassicalREM DATE 2012REM DISCID 220F4F03REM COMMENT ExactAudioCopy v1.0b3PERFORMER "New Philharmonia Orchestra - Otto Klemperer"TITLE "Bruckner - Symphonien 4-9 (CD6)"FILE "Bruckner - Symphonien 4-9 (CD6).flac" WAVE TRACK 01 AUDIO TITLE "Symphonie Nr.9: I. Feierlich, misterioso" INDEX 00 00:00:00 INDEX 01 00:00:32 TRACK 02 AUDIO TITLE "II. Scherzo: Bewegt, lebhaft - Trio: Schnell" INDEX 00 26:43:53 INDEX 01 26:43:55 TRACK 03 AUDIO TITLE "III. Adagio: Langsam, feierlich" INDEX 00 38:06:71 INDEX 01 38:06:72
Исполнители:
Philharmonia Orchestra [Nrn.4 und 7]
New Philharmonia Orchestra
Otto Klemperer
- -



Показать сообщения:    

Текущее время: 04-Дек 13:10

Часовой пояс: UTC + 3


Вы не можете начинать темы
Вы не можете отвечать на сообщения
Вы не можете редактировать свои сообщения
Вы не можете удалять свои сообщения
Вы не можете голосовать в опросах
Вы не можете прикреплять файлы к сообщениям
Вы не можете скачивать файлы