(Classical) Joaquin Turina - La procesion del Rocio, Rapsodia sinfonica, Danzas gitanas, Canto a Sevilla (Martin Roscoe/Maria Espada - Juanjo Mena) - 2014, FLAC (image+.cue) lossless


 

[Цитировать]

Joaquin Turina - Canto a Sevilla
Жанр: Classical
Страна-производитель диска: UK
Год издания диска: 2014
Издатель (лейбл): Chandos
Номер по каталогу: CHAN 10819
Дата записи: 2013
Аудиокодек: FLAC
Тип рипа: image+.cue
Битрейт аудио: lossless
Продолжительность: 1:08'32"
Источник: собственный рип
Наличие сканов в содержимом раздачи: да
Треклист:
La procesion del Rocio
01. I. Triana en fiesta
02. II. La procesion
03. Rapsodia sinfonica*
Danzas gitanas
04. I. Zambra
05. II. Danza de seduccion
06. III. Danza ritual
07. IV. Generalife
08. V. Sacromonte
Canto a Sevilla**
09. I. Preludio
10. II. Semana Santa
11. III. Las fuentecitas del Parque
12. IV. Noche de Feria
13. V. El Fantasma
14. VI. La Giralda
15. VII. Ofrenda
Исполнители:
Martin Roscoe, piano*
Maria Espada, soprano**
BBC Philharmonic
Juanjo Mena-

Лог создания рипа

Exact Audio Copy V1.0 beta 1 from 15. November 2010
EAC extraction logfile from 25. September 2014, 19:48
Joaquin Turina / Canto a Sevilla, etc
Used drive : Optiarc DVD RW AD-7203A Adapter: 4 ID: 1
Read mode : SecureUtilize accurate stream : YesDefeat audio cache : YesMake use of C2 pointers : No
Read offset correction : 48Overread into Lead-In and Lead-Out : NoFill up missing offset samples with silence : YesDelete leading and trailing silent blocks : NoNull samples used in CRC calculations : YesUsed interface : Native Win32 interface for Win NT & 2000
Used output format : User Defined EncoderSelected bitrate : 128 kBit/sQuality : HighAdd ID3 tag : NoCommand line compressor : C:\Program Files\FLAC\flac.exeAdditional command line options : -T "COMMENT=Ripped by GFox" -8 -V %s
TOC of the extracted CD
Track | Start | Length | Start sector | End sector --------------------------------------------------------- 1 | 0:00.00 | 3:10.38 | 0 | 14287 2 | 3:10.38 | 5:09.00 | 14288 | 37462 3 | 8:19.38 | 8:57.60 | 37463 | 77797 4 | 17:17.23 | 3:45.70 | 77798 | 94742 5 | 21:03.18 | 3:21.55 | 94743 | 109872 6 | 24:24.73 | 3:22.10 | 109873 | 125032 7 | 27:47.08 | 1:47.40 | 125033 | 133097 8 | 29:34.48 | 1:37.00 | 133098 | 140372 9 | 31:11.48 | 4:49.35 | 140373 | 162082 10 | 36:01.08 | 8:39.00 | 162083 | 201007 11 | 44:40.08 | 4:34.40 | 201008 | 221597 12 | 49:14.48 | 6:57.55 | 221598 | 252927 13 | 56:12.28 | 3:36.20 | 252928 | 269147 14 | 59:48.48 | 3:18.35 | 269148 | 284032 15 | 63:07.08 | 5:24.67 | 284033 | 308399
Range status and errors
Selected range
Filename D:\EAC\Joaquin Turina - Canto a Sevilla, etc.wav
Peak level 99.5 % Extraction speed 0.2 X Range quality 100.0 % Test CRC 930DA636 Copy CRC 930DA636 Copy OK
No errors occurred
AccurateRip summary
Track 1 not present in databaseTrack 2 not present in databaseTrack 3 not present in databaseTrack 4 not present in databaseTrack 5 not present in databaseTrack 6 not present in databaseTrack 7 not present in databaseTrack 8 not present in databaseTrack 9 not present in databaseTrack 10 not present in databaseTrack 11 not present in databaseTrack 12 not present in databaseTrack 13 not present in databaseTrack 14 not present in databaseTrack 15 not present in database
None of the tracks are present in the AccurateRip database
End of status report
==== Log checksum 186EE63F94BA8A11525B9E8CAF61BDA5A410C25D5392059F0A5A7BAD7690150B ====
-Доп. информация: Один из лучших "национальных" композиторов прошлого века.-



Показать сообщения:    

Текущее время: 10-Дек 23:32

Часовой пояс: UTC + 3


Вы не можете начинать темы
Вы не можете отвечать на сообщения
Вы не можете редактировать свои сообщения
Вы не можете удалять свои сообщения
Вы не можете голосовать в опросах
Вы не можете прикреплять файлы к сообщениям
Вы не можете скачивать файлы