(Classical) Ludwig van Beethoven / Людвиг ван Бетховен — Overtures / Увертюры (Alberto Lizzio, Anton Nanut, Kurt Redel) — 1994, APE (image+.cue) lossless


 

[Цитировать]

Overtures / Увертюры- Жанр: Classical
Страна-производитель диска: Германия
Год издания диска: 1994
Издатель (лейбл): Point Classics
Номер по каталогу: 2650602
CATALOG: 027726506029
Композитор: Ludwig van Beethoven
Аудио кодек: ape
Тип рипа: image+.cue
Битрейт аудио: lossless
Продолжительность: 00h55'32"
Источник: собственный рип
Наличие сканов в содержимом раздачи: да-Треклист:
01. Overture «Egmont» № 1 f-moll Op 84 [00h08'24"]
02. Overture «Coriolanus» e-moll Op 62 [00h07'36"]
03. Overture to «Fidelio» E-Dur Op 72b [00h06'43"]
04. Overture «Leonore» № 3 C-Dur Op 72a [00h13'39"]
05. Overture «King Stephen» № 1 Es-Dur Op 117 [00h07'28"]
06. Overture «The Creatures of Prometheus» № 1 C-Dur Op 43 [00h05'23"]
07. Overture «The Ruin Of Athens» № 1 g-moll Op 113 [00h06'18"]-(01) London Symphony Orchestra, cond. Alberto Lizzio
(02) London Philharmonic Orchestra, cond. Alberto Lizzio
(03-05) Radio Symphony Orchestra, cond. Anton Nanut
(06-07) London Festival Orchestra, cond. Kurt Redel-

EAC log

Exact Audio Copy V0.99 prebeta 5 from 4. May 2009
Отчёт EAC об извлечении, выполненном 25. сентября 2014, 19:50
Beethoven / Overtures
Дисковод: PIONEER DVD-RW  DVR-111D   Adapter: 1  ID: 0
Режим чтения                 : Достоверность
Использование точного потока : Да
Отключение кэша аудио        : Да
Использование указателей C2  : Нет
Коррекция смещения при чтении                     : 48
Способность читать области Lead-in и Lead-out     : Нет
Заполнение пропущенных сэмплов тишиной            : Да
Удаление блоков с тишиной в начале и конце        : Нет
При вычислениях CRC использовались нулевые сэмплы : Да
Интерфейс                                         : Установленный внешний ASPI-интерфейс
Выходной формат          : Monkey's Audio (без потерь)
Выбранный битрейт        : Normal Lossless Compression
Качество                 : Высокий
Добавление ID3-тэга      : Нет
Утилита сжатия           : C:\Program Files\Monkey's Audio\MAC.exe
TOC извлечённого CD
     Трек |   Старт  | Длительность | Начальный сектор | Конечный сектор
    ---------------------------------------------------------------------
       1  |  0:01.30 |    8:24.23   |         105      |      37927
       2  |  8:25.53 |    7:36.13   |       37928      |      72140
       3  | 16:01.66 |    6:42.52   |       72141      |     102342
       4  | 22:44.43 |   13:38.41   |      102343      |     163733
       5  | 36:23.09 |    7:27.42   |      163734      |     197300
       6  | 43:50.51 |    5:23.27   |      197301      |     221552
       7  | 49:14.03 |    6:17.59   |      221553      |     249886
Характеристики диапазона извлечения и сообщения об ошибках
Выбранный диапазон
     Имя файла D:\Музыка lossless\Beethoven Overtures\Beethoven - Overtures.wav
     Пиковый уровень 92.9 %
     Качество диапазона 100.0 %
     CRC теста 1591B8EF
     CRC копии 1591B8EF
     Копирование... OK
Ошибок не произошло
AccurateRip: сводка
Трек  1  точное извлечение (доверие 2)  [AB59591A]
Трек  2  точное извлечение (доверие 2)  [A6BA2E4A]
Трек  3  точное извлечение (доверие 2)  [5C0131A6]
Трек  4  точное извлечение (доверие 2)  [DA49874E]
Трек  5  точное извлечение (доверие 2)  [68F772BA]
Трек  6  точное извлечение (доверие 2)  [ED50C30F]
Трек  7  точное извлечение (доверие 2)  [076DD1F8]
Все треки извлечены точно
Конец отчёта

-

CUE

REM GENRE Classical
REM DATE 1994
REM DISCID 640D0207
REM COMMENT "ExactAudioCopy v0.99pb5"
PERFORMER "Beethoven"
TITLE "Overtures"
FILE "Beethoven - Overtures.ape" WAVE
  TRACK 01 AUDIO
    TITLE "Overture «Egmont» № 1 f-moll Op 84"
    PERFORMER "Beethoven"
    FLAGS DCP
    INDEX 00 00:00:00
    INDEX 01 00:01:30
  TRACK 02 AUDIO
    TITLE "Overture «Coriolanus» e-moll Op 62"
    PERFORMER "Beethoven"
    FLAGS DCP
    INDEX 01 08:25:53
  TRACK 03 AUDIO
    TITLE "Overture to «Fidelio» E-Dur Op 72b"
    PERFORMER "Beethoven"
    FLAGS DCP
    INDEX 01 16:01:66
  TRACK 04 AUDIO
    TITLE "Overture «Leonore» № 3 C-Dur Op 72a"
    PERFORMER "Beethoven"
    FLAGS DCP
    INDEX 01 22:44:43
  TRACK 05 AUDIO
    TITLE "Overture «King Stephen» № 1 Es-Dur Op 117"
    PERFORMER "Beethoven"
    FLAGS DCP
    INDEX 01 36:23:09
  TRACK 06 AUDIO
    TITLE "Overture «The Creatures of Prometheus» № 1 C-Dur Op 43"
    PERFORMER "Beethoven"
    FLAGS DCP
    INDEX 01 43:50:51
  TRACK 07 AUDIO
    TITLE "Overture «The Ruin of Athens» № 1 g-moll Op 113"
    PERFORMER "Beethoven"
    FLAGS DCP
    INDEX 01 49:14:03
-



Показать сообщения:    

Текущее время: 10-Дек 17:46

Часовой пояс: UTC + 3


Вы не можете начинать темы
Вы не можете отвечать на сообщения
Вы не можете редактировать свои сообщения
Вы не можете удалять свои сообщения
Вы не можете голосовать в опросах
Вы не можете прикреплять файлы к сообщениям
Вы не можете скачивать файлы