(Classical) Peter Tchaikovsky / Пётр Чайковский — Симфония № 5 Op 64 • Симфоническая фантазия по драме В. Шекспира «Буря» (The USSR Symphony Orchestra, Evgeni Svetlanov / ГАСО СССР, Евгений Светланов) — 1991, APE (image+.cue) lossless


 

[Цитировать]

Симфония № 5 Op 64 • Симфоническая фантазия по драме В. Шекспира «Буря»- Жанр: Classical
Страна-производитель диска: СССР
Годы издания диска: 1991
Годы записи фонограммы: 1967, 1970
Издатель (лейбл): Грамзапись
Номер по каталогу: GCD 00197
Композитор: Пётр Чайковский
Аудио кодек: ape
Тип рипа: image+.cue
Битрейт аудио: lossless
Продолжительность: 01h10'40"
Источник: собственный рип
Наличие сканов в содержимом раздачи: нет-Треклист:
Symphony № 5 e-moll Op 64 (запись 1967)
01. I. Andante. Allegro con anima [00h15'01"]
02. II. Andante cantabile con alcuna licenza [00h14'14"]
03. III. Valse. Allegro moderato [00h05'47"]
04. IV. Finale. Andante maestroso. Allegro vivace [00h12'31"]
05. Symphonic Fantasy to W. Shakespeare's Drama The Tempest [00h23'06"] (запись 1970)-The USSR Symphony Orchestra, cond. Evgeni Svetlanov / Государственный академический симфонический оркестр СССР, дир. Евгений Светланов-

EAC log

Exact Audio Copy V0.99 prebeta 5 from 4. May 2009
Отчёт EAC об извлечении, выполненном 24. сентября 2014, 15:04
Tchaikovsky / Symphony 5 & The Tempest
Дисковод: PIONEER DVD-RW  DVR-111D   Adapter: 1  ID: 0
Режим чтения                 : Достоверность
Использование точного потока : Да
Отключение кэша аудио        : Да
Использование указателей C2  : Нет
Коррекция смещения при чтении                     : 48
Способность читать области Lead-in и Lead-out     : Нет
Заполнение пропущенных сэмплов тишиной            : Да
Удаление блоков с тишиной в начале и конце        : Нет
При вычислениях CRC использовались нулевые сэмплы : Да
Интерфейс                                         : Установленный внешний ASPI-интерфейс
Выходной формат          : Monkey's Audio (без потерь)
Выбранный битрейт        : Normal Lossless Compression
Качество                 : Высокий
Добавление ID3-тэга      : Нет
Утилита сжатия           : C:\Program Files\Monkey's Audio\MAC.exe
TOC извлечённого CD
     Трек |   Старт  | Длительность | Начальный сектор | Конечный сектор
    ---------------------------------------------------------------------
       1  |  0:00.23 |   15:01.37   |          23      |      67634
       2  | 15:01.60 |   14:14.13   |       67635      |     131697
       3  | 29:15.73 |    5:46.62   |      131698      |     157709
       4  | 35:02.60 |   12:31.05   |      157710      |     214039
       5  | 47:33.65 |   23:06.08   |      214040      |     317997
Характеристики диапазона извлечения и сообщения об ошибках
Выбранный диапазон
     Имя файла D:\Музыка lossless\Tchaikovsky Symphonies Svetlanov\Tchaikovsky Symphony 5 & The Tempest Svetlanov\Tchaikovsky - Symphony 5 & The Tempest.wav
     Пиковый уровень 100.0 %
     Качество диапазона 100.0 %
     CRC теста BA858CA7
     CRC копии BA858CA7
     Копирование... OK
Ошибок не произошло
AccurateRip: сводка
Трек  1  точное извлечение (доверие 2)  [F352D9B1]
Трек  2  точное извлечение (доверие 2)  [0CBB8B4C]
Трек  3  точное извлечение (доверие 2)  [48522BDA]
Трек  4  точное извлечение (доверие 2)  [E6F24B6E]
Трек  5  точное извлечение (доверие 2)  [D4EB1C63]
Все треки извлечены точно
Конец отчёта

-

CUE

REM GENRE Classical
REM DATE 1991
REM DISCID 3D108F05
REM COMMENT "ExactAudioCopy v0.99pb5"
PERFORMER "Tchaikovsky"
TITLE "Symphony 5 & The Tempest"
FILE "Tchaikovsky - Symphony 5 & The Tempest.ape" WAVE
  TRACK 01 AUDIO
    TITLE "Symphony № 5 e-moll Op 64 – I. Andante. Allegro con anima"
    PERFORMER "Tchaikovsky"
    INDEX 00 00:00:00
    INDEX 01 00:00:23
  TRACK 02 AUDIO
    TITLE "Symphony № 5 e-moll Op 64 – II. Andante cantabile con alcuna licenza"
    PERFORMER "Tchaikovsky"
    INDEX 00 14:59:28
    INDEX 01 15:01:60
  TRACK 03 AUDIO
    TITLE "Symphony № 5 e-moll Op 64 – III. Valse. Allegro moderato"
    PERFORMER "Tchaikovsky"
    INDEX 00 29:13:48
    INDEX 01 29:15:73
  TRACK 04 AUDIO
    TITLE "Symphony № 5 e-moll Op 64 – IV. Finale. Andante maestroso. Allegro vivace"
    PERFORMER "Tchaikovsky"
    INDEX 00 35:01:60
    INDEX 01 35:02:60
  TRACK 05 AUDIO
    TITLE "Symphonic Fantasy to W. Shakespeare's Drama The Tempest"
    PERFORMER "Tchaikovsky"
    INDEX 00 47:31:48
    INDEX 01 47:33:65
-



Показать сообщения:    

Текущее время: 10-Дек 19:34

Часовой пояс: UTC + 3


Вы не можете начинать темы
Вы не можете отвечать на сообщения
Вы не можете редактировать свои сообщения
Вы не можете удалять свои сообщения
Вы не можете голосовать в опросах
Вы не можете прикреплять файлы к сообщениям
Вы не можете скачивать файлы